<?xml version="1.0" standalone="no"?>
<!DOCTYPE svg PUBLIC "-//W3C//DTD SVG 1.1//EN" "http://www.w3.org/Graphics/SVG/1.1/DTD/svg11.dtd">
<svg xmlns="http://www.w3.org/2000/svg">
<defs >
<font id="BalooDa2" horiz-adv-x="617" ><font-face
    font-family="Baloo Da 2 ExtraBold"
    units-per-em="1000"
    panose-1="3 8 9 2 4 3 2 2 2 0"
    ascent="1095"
    descent="-589"
    alphabetic="0" />
<glyph unicode=" " glyph-name="space" horiz-adv-x="200" />
<glyph unicode="!" glyph-name="exclam" horiz-adv-x="298" d="M237 558Q237 535 236 495T232 409T224 315T212 231Q208 228 200 225T183 220T165 217T149 216Q120 216 101 225T76 260Q71 283 68 326T61 420T57 522T55 611Q75 622 100 628T151 635Q192 635 214
616T237 558ZM53 76Q53 118 78 144T149 170Q194 170 219 144T245 76Q245 34 220 8T149 -18Q104 -18 79 8T53 76Z" />
<glyph unicode="&quot;" glyph-name="quotedbl" horiz-adv-x="410" d="M158 378Q147 372 133 370T100 368Q75 368 58 377T38 412L25 611Q55 635 105 635Q143 635 162 621T181 575Q181 561 179 536T174 483T166 426T158 378ZM359 378Q348 372 334 370T301 368Q276
368 259 377T239 412L226 611Q256 635 306 635Q344 635 363 621T382 575Q382 561 380 536T375 483T367 426T359 378Z" />
<glyph unicode="#" glyph-name="numbersign" horiz-adv-x="714" d="M563 357L540 256H639Q645 246 651 230T657 194Q657 159 642 144T600 129H512L484 -1Q470 -3 459 -3T436 -4Q398 -4 376 10T354 65Q354 80 356 96T362 129H272L244 -1Q230 -3 219 -3T196 -4Q158
-4 136 10T114 65Q114 80 116 96T122 129H48Q41 139 36 155T30 191Q30 226 45 241T87 256H150L172 357H75Q68 367 63 383T57 419Q57 454 72 469T114 484H200L229 615Q243 617 255 617T278 617Q315 617 338 604T361 550Q361 534 358 518T351 484H440L469 615Q483
617 495 617T518 617Q555 617 578 604T601 550Q601 534 598 518T591 484H666Q672 474 678 458T684 422Q684 387 669 372T627 357H563ZM300 256H390L412 357H323L300 256Z" />
<glyph unicode="$" glyph-name="dollar" horiz-adv-x="565" d="M255 124Q304 124 324 140T344 176Q344 196 328 207T283 229L241 243Q197 258 161 273T99 311T59 363T44 438Q44 506 86 552T206 616V695Q216 698 234 700T273 703Q317 703 336 689T356 632V621Q418
613 455 589T493 523Q493 497 481 479T452 447Q430 461 393 471T312 482Q267 482 246 470T225 438Q225 423 238 414T277 396L330 379Q424 349 474 302T525 174Q525 106 482 58T356 -8V-86Q346 -89 328 -91T289 -94Q245 -94 226 -80T206 -23V-15Q170 -11 141 -2T90
21T56 54T44 97Q44 126 61 146T98 178Q126 156 166 140T255 124Z" />
<glyph unicode="%" glyph-name="percent" horiz-adv-x="799" d="M351 458Q351 383 306 341T190 299Q118 299 74 341T29 458Q29 532 73 574T190 616Q261 616 306 574T351 458ZM150 458Q150 428 161 414T190 399Q207 399 218 413T230 458Q230 487 219 501T190 515Q173
515 162 501T150 458ZM542 617Q576 612 603 599T631 562Q631 546 623 529T602 494L256 -7Q218 -4 193 10T167 48Q167 64 175 80T196 115L542 617ZM770 151Q770 76 725 34T609 -8Q537 -8 493 34T448 151Q448 225 492 267T609 309Q680 309 725 267T770 151ZM569 151Q569
121 580 107T609 92Q626 92 637 106T649 151Q649 180 638 194T609 208Q592 208 581 194T569 151Z" />
<glyph unicode="&amp;" glyph-name="ampersand" horiz-adv-x="673" d="M566 -14Q526 -14 488 24L469 42Q427 10 376 -3T279 -16Q220 -16 175 -1T99 42T52 105T36 185Q36 220 46 248T74 299T115 338T164 366Q137 401 131 425T124 470Q124 501 136 529T172 578T231
611T311 623Q374 623 400 601T426 543Q426 527 420 511T400 481Q389 486 375 489T344 492Q318 492 301 481T284 446Q284 431 295 418T329 381L456 257Q463 288 465 320T467 378Q486 386 502 389T536 393Q560 393 575 386T598 367T610 337T613 300Q613 265 604 226T572
146L649 72Q647 34 623 10T566 -14ZM289 114Q301 114 324 118T374 138L245 267Q223 257 210 238T196 196Q196 161 219 138T289 114Z" />
<glyph unicode="&apos;" glyph-name="quotesingle" horiz-adv-x="219" d="M168 382Q157 376 141 372T105 368Q78 368 59 379T38 416L25 607Q39 618 61 626T110 635Q148 635 169 620T191 571Q191 557 189 533T184 482T176 429T168 382Z" />
<glyph unicode="(" glyph-name="parenleft" horiz-adv-x="305" d="M223 -136Q182 -136 155 -111T108 -51Q79 3 61 82T42 266Q42 371 60 450T108 583Q127 618 154 643T223 668Q250 668 271 653T303 621Q279 585 261 547T230 465T211 373T204 266Q204 208 210 159T229
67T260 -14T303 -89Q292 -106 271 -121T223 -136Z" />
<glyph unicode=")" glyph-name="parenright" horiz-adv-x="305" d="M83 -136Q56 -136 35 -121T3 -89Q27 -53 45 -15T76 67T95 159T102 266Q102 324 96 373T77 465T46 546T3 621Q14 638 35 653T83 668Q124 668 151 643T198 583Q227 529 245 450T264 266Q264 161
246 82T198 -51Q179 -86 152 -111T83 -136Z" />
<glyph unicode="*" glyph-name="asterisk" horiz-adv-x="351" d="M75 570Q82 570 90 568T108 563L123 558V630Q131 635 145 642T177 649Q200 649 214 637T228 601Q228 596 228 584T226 556L285 581Q302 573 314 558T326 522Q326 498 314 489T279 471L260 463L307
397Q300 375 284 361T245 347Q221 347 209 360T186 393L178 406L140 350Q128 347 117 347Q84 347 67 360T50 396Q50 408 55 419T72 444L86 463L26 480Q20 498 20 517Q20 542 34 556T75 570Z" />
<glyph unicode="+" glyph-name="plus" horiz-adv-x="545" d="M351 356H498Q504 345 509 327T515 289Q515 252 498 237T454 222H351V49Q341 47 320 44T280 41Q239 41 218 54T197 112V222H47Q40 233 35 249T30 286Q30 323 47 339T91 356H197V525Q207 527 227 530T267
534Q307 534 329 520T351 462V356Z" />
<glyph unicode="," glyph-name="comma" horiz-adv-x="243" d="M149 -73Q132 -95 113 -105T65 -115Q21 -115 -10 -90Q12 -28 27 37T52 156Q69 165 93 171T141 178Q172 178 195 164T219 114Q219 93 213 68T197 17T175 -33T149 -73Z" />
<glyph unicode="-" glyph-name="hyphen" horiz-adv-x="354" d="M49 186Q42 197 36 215T30 253Q30 290 47 306T91 323H305Q311 312 317 294T324 256Q324 219 307 203T263 186H49Z" />
<glyph unicode="." glyph-name="period" horiz-adv-x="238" d="M22 81Q22 123 48 151T119 179Q164 179 190 151T216 81Q216 39 190 11T119 -17Q74 -17 48 11T22 81Z" />
<glyph unicode="/" glyph-name="slash" horiz-adv-x="343" d="M141 -106Q127 -108 114 -108T90 -109Q48 -109 26 -91T3 -33Q3 -6 11 21T25 70L201 705Q216 707 229 707T253 708Q293 708 316 691T340 636Q340 607 332 581T317 529L141 -106Z" />
<glyph unicode="0" glyph-name="zero" horiz-adv-x="606" d="M400 304Q400 392 375 440T302 488Q255 488 231 440T206 304Q206 210 230 165T302 119Q349 119 374 164T400 304ZM303 -16Q244 -16 195 4T110 64T55 164T35 304Q35 381 54 440T109 540T194 602T303
623Q361 623 410 602T495 541T551 441T571 304Q571 224 551 165T496 65T411 4T303 -16Z" />
<glyph unicode="1" glyph-name="one" horiz-adv-x="393" d="M55 415Q40 425 25 443T10 493Q10 553 83 577L195 615H232Q275 615 300 590T325 522V1Q314 -2 294 -5T249 -8Q199 -8 177 8T155 72V446L55 415Z" />
<glyph unicode="2" glyph-name="two" horiz-adv-x="522" d="M60 520Q60 572 109 597T241 623Q300 623 345 609T420 569T465 510T480 437Q480 332 361 237L230 132H470Q476 121 481 104T487 67Q487 31 471 16T429 0H82Q60 15 48 38T35 94Q35 128 49 151T80 189L218
307Q244 329 261 346T288 378T303 404T308 427Q308 455 286 471T223 487Q183 487 152 475T99 448Q82 460 71 478T60 520Z" />
<glyph unicode="3" glyph-name="three" horiz-adv-x="518" d="M233 623Q348 623 408 576T468 448Q468 400 443 367T382 316Q403 308 421 296T453 266T475 224T483 168Q483 125 465 91T413 33T335 -3T235 -16Q131 -16 78 13T25 87Q25 114 38 133T70 164Q90 150
123 135T211 119Q262 119 286 137T311 184Q311 213 292 228T224 243H130Q123 254 118 270T113 308Q113 331 117 347T130 375H224Q296 375 296 430Q296 456 273 472T204 488Q163 488 132 479T81 455Q64 467 53 484T42 526Q42 576 94 599T233 623Z" />
<glyph unicode="4" glyph-name="four" horiz-adv-x="602" d="M282 601Q301 607 325 611T370 615Q393 615 414 611T453 596T480 567T490 522V256H569Q575 245 581 227T587 189Q587 151 570 135T527 119H490V1Q479 -1 457 -4T415 -8Q393 -8 376 -6T348 3T330 25T324
63V119H87Q64 131 48 154T31 212Q31 231 35 254T53 294L282 601ZM333 444H329L206 256H333V444Z" />
<glyph unicode="5" glyph-name="five" horiz-adv-x="522" d="M68 515Q71 558 95 583T162 608H450Q457 597 462 580T468 542Q468 505 452 488T408 471H216L209 377Q228 382 247 386T297 390Q349 390 387 375T451 332T488 269T500 192Q500 151 486 113T441 47T363
1T250 -16Q204 -16 167 -9T102 12T60 46T45 94Q45 122 61 141T97 171Q125 150 157 135T238 119Q285 119 306 140T328 191Q328 220 309 239T247 258Q220 258 202 252T161 235Q112 237 84 261T55 337Q55 340 55 344T56 363L68 515V515Z" />
<glyph unicode="6" glyph-name="six" horiz-adv-x="558" d="M483 534Q483 513 474 494T451 464Q424 476 395 482T340 489Q280 489 248 458T204 367Q224 381 257 392T325 404Q417 404 471 351T526 199Q526 156 511 117T466 49T392 2T288 -16Q170 -16 103 63T35
288Q35 371 55 434T113 539T203 602T318 623Q398 623 440 601T483 534ZM289 119Q322 119 338 141T355 198Q355 233 338 253T287 274Q268 274 247 266T212 244V219Q212 165 234 142T289 119Z" />
<glyph unicode="7" glyph-name="seven" horiz-adv-x="482" d="M428 608Q445 597 458 578T472 529Q472 513 469 497T459 464L251 -7Q237 -8 225 -8T201 -8Q156 -8 128 9T100 68Q100 89 110 113T137 172L283 471H38Q32 482 26 500T20 538Q20 576 37 592T80 608H428Z" />
<glyph unicode="8" glyph-name="eight" horiz-adv-x="560" d="M31 168Q31 224 59 261T128 319Q90 339 69 371T47 449Q47 490 64 522T112 578T186 613T281 625Q392 625 455 578T519 450Q519 399 495 368T433 317Q453 308 471 295T504 264T526 222T535 166Q535 123
517 89T466 31T385 -5T281 -18Q225 -18 179 -6T100 31T49 89T31 168ZM365 178Q365 207 341 228T270 259Q234 246 218 225T201 178Q201 146 223 128T281 110Q319 110 342 127T365 178ZM214 440Q214 411 234 395T287 371Q318 382 335 398T352 441Q352 468 334 483T281
498Q250 498 232 482T214 440Z" />
<glyph unicode="9" glyph-name="nine" horiz-adv-x="558" d="M69 73Q69 94 78 113T101 143Q128 131 157 125T212 118Q277 118 315 151T353 241V243Q333 227 303 218T237 209Q192 209 155 221T90 259T47 321T32 408Q32 451 47 490T92 558T166 605T270 623Q388 623
455 544T523 319Q523 236 503 173T445 68T355 5T240 -16Q160 -16 115 6T69 73ZM276 337Q295 337 314 345T347 367V380Q347 488 269 488Q236 488 219 468T201 412Q201 377 222 357T276 337Z" />
<glyph unicode=":" glyph-name="colon" horiz-adv-x="258" d="M38 395Q38 437 64 465T135 493Q180 493 206 465T232 395Q232 353 206 325T135 297Q90 297 64 325T38 395ZM32 81Q32 123 58 151T129 179Q174 179 200 151T226 81Q226 39 200 11T129 -17Q84 -17 58 11T32 81Z" />
<glyph unicode=";" glyph-name="semicolon" horiz-adv-x="266" d="M38 395Q38 437 64 465T135 493Q180 493 206 465T232 395Q232 353 206 325T135 297Q90 297 64 325T38 395ZM162 -73Q145 -95 126 -105T78 -115Q34 -115 3 -90Q25 -28 40 37T65 156Q82 165 106
171T154 178Q185 178 208 164T232 114Q232 93 226 68T210 17T188 -33T162 -73Z" />
<glyph unicode="&lt;" glyph-name="less" horiz-adv-x="490" d="M457 154Q459 148 459 140T460 125Q460 107 456 91T443 63T420 44T383 36Q362 36 342 44T291 69L56 188Q30 222 30 278Q30 320 42 344T77 379L376 529Q425 516 442 494T460 445Q460 410 443 391T391
354L191 275L457 154Z" />
<glyph unicode="=" glyph-name="equal" horiz-adv-x="509" d="M49 333Q42 344 37 360T32 397Q32 434 49 450T93 467H460Q466 456 471 438T477 400Q477 363 460 348T416 333H49ZM49 124Q42 135 37 151T32 188Q32 225 49 241T93 258H460Q466 247 471 229T477 191Q477
154 460 139T416 124H49Z" />
<glyph unicode="&gt;" glyph-name="greater" horiz-adv-x="491" d="M33 406Q31 412 31 420T30 435Q30 453 34 469T47 497T70 516T107 524Q128 524 150 515T199 492L434 375Q460 341 460 285Q460 243 448 220T413 184L118 34Q69 47 52 69T34 118Q34 153 51 172T103
209L299 288L33 406Z" />
<glyph unicode="?" glyph-name="question" horiz-adv-x="498" d="M136 210Q119 221 104 243T89 298Q89 329 105 344T154 368L232 387Q258 395 270 406T282 441Q282 460 264 476T200 493Q159 493 123 483T65 458Q48 471 36 489T24 534Q24 560 39 579T80 611T143
630T224 636Q283 636 327 622T402 581T447 519T463 441Q463 354 406 304T237 230L136 210ZM103 77Q103 119 128 145T199 171Q244 171 269 145T295 77Q295 35 270 9T199 -17Q154 -17 129 9T103 77Z" />
<glyph unicode="@" glyph-name="at" horiz-adv-x="1069" d="M640 30Q616 16 585 8T515 0Q470 0 433 13T368 51T326 113T311 197Q311 251 329 296T381 374T460 424T564 442Q622 442 662 428T730 395Q769 368 769 328Q769 323 769 318T768 308L747 128Q751 126 759
125T772 124Q817 124 843 166T869 277Q869 334 846 381T783 463T686 516T562 535Q484 535 419 510T308 441T236 336T210 204Q210 135 232 80T295 -14T389 -73T509 -94Q554 -94 582 -90T633 -83Q640 -94 645 -110T651 -140Q651 -161 644 -177T620 -204T572 -221T497
-227Q420 -227 341 -203T196 -128T90 6T49 204Q49 310 88 395T197 540T359 631T561 663Q664 663 750 636T898 558T994 436T1029 276Q1029 142 962 69T772 -5Q742 -5 706 3T640 30ZM480 198Q480 158 499 143T544 128Q573 128 594 143L609 299Q601 304 591 306T563
309Q528 309 504 281T480 198Z" />
<glyph unicode="A" glyph-name="A" horiz-adv-x="627" d="M403 126H222Q212 90 205 59T190 1Q176 -4 161 -7T123 -11Q72 -11 48 6T23 55Q23 69 27 83T36 116Q43 143 55 183T83 270T115 365T147 457T174 535T194 588Q211 598 245 607T315 616Q365 616 403 602T453
555Q471 504 492 435T534 293T575 148T610 21Q598 7 574 -1T517 -10Q468 -10 449 6T421 57L403 126ZM314 459Q300 418 283 368T250 261H374Q360 318 346 368T320 459H314Z" />
<glyph unicode="B" glyph-name="B" horiz-adv-x="619" d="M564 447Q564 402 539 371T469 321Q585 283 585 178Q585 79 512 32T300 -16Q283 -16 260 -15T213 -11T164 -4T120 9Q65 30 65 82V549Q65 570 76 581T108 600Q142 612 193 617T298 623Q426 623 495 580T564
447ZM406 186Q406 247 324 247H235V125Q249 121 271 120T313 118Q353 118 379 134T406 186ZM235 369H308Q351 369 370 385T390 432Q390 459 368 475T300 491Q285 491 266 490T235 487V369Z" />
<glyph unicode="C" glyph-name="C" horiz-adv-x="571" d="M541 518Q541 492 528 473T498 443Q472 460 443 472T374 484Q297 484 256 437T215 303Q215 214 259 169T383 123Q424 123 452 134T507 159Q524 145 533 126T543 80Q543 57 531 38T490 6Q472 -2 439 -10T359
-18Q291 -18 232 1T129 59T60 158T35 303Q35 381 59 441T126 542T226 604T348 625Q440 625 490 595T541 518Z" />
<glyph unicode="D" glyph-name="D" horiz-adv-x="666" d="M451 301Q451 391 409 436T297 482Q283 482 269 481T239 478V130Q250 128 266 127T296 125Q365 125 408 169T451 301ZM631 304Q631 224 607 164T539 64T432 4T295 -16Q278 -16 256 -15T211 -11T164 -4T120
9Q65 30 65 82V549Q65 570 76 581T108 600Q151 614 199 618T285 623Q363 623 426 604T535 546T606 446T631 304Z" />
<glyph unicode="E" glyph-name="E" horiz-adv-x="548" d="M158 -3Q115 -3 90 22T65 90V513Q65 556 90 581T158 606H488Q495 595 500 578T506 540Q506 503 490 486T446 469H235V376H460Q467 365 472 348T478 310Q478 273 462 257T418 240H235V135H492Q499 124 504
106T510 67Q510 30 494 14T450 -3H158V-3Z" />
<glyph unicode="F" glyph-name="F" horiz-adv-x="531" d="M65 513Q65 556 90 581T158 606H491Q498 595 503 577T509 538Q509 500 493 483T448 466H238V353H457Q464 342 470 325T476 286Q476 248 460 232T415 215H240V1Q229 -2 206 -5T159 -8Q106 -8 86 10T65 75V513V513Z" />
<glyph unicode="G" glyph-name="G" horiz-adv-x="664" d="M614 97Q614 66 603 51T568 22Q554 14 533 7T487 -6T435 -15T380 -18Q308 -18 245 0T136 58T62 157T35 302Q35 381 62 441T136 542T246 604T382 625Q477 625 532 595T588 516Q588 490 575 471T545 441Q520
456 482 470T395 484Q355 484 322 471T265 435T228 378T215 303Q215 258 227 224T262 168T315 134T383 122Q405 122 421 126T447 135V231H340Q334 242 329 260T323 298Q323 334 339 350T382 366H551Q581 366 597 350T614 303V97Z" />
<glyph unicode="H" glyph-name="H" horiz-adv-x="672" d="M240 1Q229 -2 206 -5T159 -8Q106 -8 86 10T65 75V608Q77 610 100 613T146 617Q196 617 218 600T240 534V372H432V608Q444 610 467 613T513 617Q563 617 585 599T607 532V1Q596 -2 573 -5T526 -8Q473 -8
453 10T432 75V234H240V1V1Z" />
<glyph unicode="I" glyph-name="I" horiz-adv-x="305" d="M159 -8Q106 -8 86 10T65 75V608Q77 610 100 613T146 617Q196 617 218 600T240 534V1Q229 -2 206 -5T159 -8Z" />
<glyph unicode="J" glyph-name="J" horiz-adv-x="412" d="M350 180Q350 91 299 38T149 -15Q122 -15 99 -11T59 4T31 32T21 74Q21 94 26 109T40 133Q59 129 72 128T102 126Q141 126 158 145T175 203V608Q187 610 210 613T256 617Q306 617 328 600T350 534V180V180Z" />
<glyph unicode="K" glyph-name="K" horiz-adv-x="615" d="M240 227V1Q229 -2 206 -5T159 -8Q106 -8 86 10T65 75V608Q77 610 100 613T146 617Q196 617 218 600T240 534V372L448 612Q516 612 545 587T575 526Q575 500 562 477T520 425L395 300Q460 228 513 172T598
81Q598 59 590 42T569 13T538 -5T502 -11Q461 -11 435 9T385 58L240 227Z" />
<glyph unicode="L" glyph-name="L" horiz-adv-x="513" d="M158 -3Q115 -3 90 22T65 90V608Q77 610 100 613T146 617Q196 617 218 600T240 534V138H469Q476 127 482 109T488 70Q488 33 472 15T428 -3H158V-3Z" />
<glyph unicode="M" glyph-name="M" horiz-adv-x="797" d="M484 149Q471 138 451 132T403 125Q367 125 344 134T313 165Q285 253 267 307T239 403H234Q231 344 230 296T228 201T226 108T221 4Q208 -1 187 -4T145 -8Q101 -8 77 6T52 57Q52 88 55 147T62 279T72 427T81
567Q89 580 116 595T192 610Q245 610 275 594T319 540Q328 516 338 485T359 421T380 356T398 297H403Q427 381 451 459T495 591Q510 599 533 604T586 610Q635 610 666 596T702 554Q706 534 710 493T720 399T730 289T739 178T747 80T751 11Q734 1 716 -3T668 -8Q630
-8 604 5T576 56Q570 165 569 252T564 398H559Q549 359 530 300T484 149Z" />
<glyph unicode="N" glyph-name="N" horiz-adv-x="679" d="M614 21Q600 7 574 0T510 -8Q473 -8 440 3T386 56L287 258Q272 289 260 316T234 380L227 378Q232 315 232 262T233 159V0Q222 -2 200 -5T155 -8Q104 -8 85 9T65 72V575Q79 595 108 605T170 615Q207 615
240 604T294 551L394 349Q409 318 421 291T447 227L451 228Q447 276 447 318T446 400V609Q457 611 479 614T524 617Q575 617 594 600T614 537V21V21Z" />
<glyph unicode="O" glyph-name="O" horiz-adv-x="703" d="M668 304Q668 226 644 166T578 65T477 3T351 -18Q283 -18 225 3T125 65T59 166T35 304Q35 382 59 442T126 542T226 604T351 625Q418 625 475 604T576 543T643 442T668 304ZM488 304Q488 394 451 439T351
484Q290 484 253 440T215 304Q215 213 252 168T352 123Q414 123 451 168T488 304Z" />
<glyph unicode="P" glyph-name="P" horiz-adv-x="581" d="M240 188V1Q229 -2 206 -5T159 -8Q106 -8 86 10T65 75V549Q65 570 76 581T108 600Q142 612 188 617T273 623Q411 623 484 564T557 404Q557 355 539 316T487 248T405 204T298 188H240ZM287 325Q329 325
354 345T379 404Q379 442 356 462T287 483Q271 483 261 483T239 480V325H287Z" />
<glyph unicode="Q" glyph-name="Q" horiz-adv-x="705" d="M668 305Q668 206 631 137T531 30Q573 11 619 -3T704 -30Q705 -36 705 -40T705 -49Q705 -106 676 -132T598 -158Q552 -158 503 -133T403 -59L357 -16H351Q283 -16 225 5T125 66T59 167T35 305Q35 383 59
442T126 542T226 604T351 625Q418 625 475 604T576 543T643 443T668 305ZM488 305Q488 395 451 439T351 484Q290 484 253 440T215 305Q215 214 252 170T352 125Q414 125 451 169T488 305Z" />
<glyph unicode="R" glyph-name="R" horiz-adv-x="609" d="M561 408Q561 351 532 307T453 233Q472 207 491 183T528 137T558 96T581 62Q571 27 545 9T485 -10Q463 -10 447 -5T419 9T397 31T378 59L293 196H240V1Q229 -2 206 -5T159 -8Q106 -8 86 10T65 75V549Q65
570 76 581T108 600Q142 612 187 617T283 623Q421 623 491 565T561 408ZM288 329Q330 329 357 348T384 406Q384 444 360 463T282 483Q270 483 260 482T238 479V329H288Z" />
<glyph unicode="S" glyph-name="S" horiz-adv-x="551" d="M251 124Q300 124 320 140T340 176Q340 196 324 207T279 229L237 243Q193 258 157 273T95 311T55 363T40 438Q40 523 105 574T289 625Q332 625 369 619T432 601T474 569T489 523Q489 497 477 479T448 447Q426
461 389 471T308 482Q263 482 242 470T221 438Q221 423 234 414T273 396L326 379Q420 349 470 302T521 174Q521 132 504 97T454 36T371 -4T257 -18Q211 -18 172 -11T103 11T57 47T40 97Q40 126 57 146T94 178Q122 156 162 140T251 124Z" />
<glyph unicode="T" glyph-name="T" horiz-adv-x="556" d="M518 606Q525 595 530 577T536 538Q536 500 520 483T475 466H362V1Q351 -2 328 -5T281 -8Q228 -8 208 10T187 75V466H36Q29 477 24 495T18 534Q18 572 34 589T79 606H518V606Z" />
<glyph unicode="U" glyph-name="U" horiz-adv-x="664" d="M332 -18Q269 -18 219 -1T134 47T81 123T62 222V608Q74 610 97 613T143 617Q193 617 215 600T237 534V225Q237 177 263 150T332 123Q374 123 400 150T427 225V608Q439 610 462 613T508 617Q558 617 580
600T602 534V222Q602 168 584 124T530 48T445 -1T332 -18Z" />
<glyph unicode="V" glyph-name="V" horiz-adv-x="634" d="M428 20Q414 8 385 -1T320 -10Q278 -10 248 2T207 37Q196 60 180 96T147 178T111 273T75 376T43 478T17 572Q31 586 57 597T114 609Q151 609 174 594T209 536Q236 438 263 349T321 162H327Q354 256 382
367T437 588Q455 597 475 603T522 609Q559 609 585 593T611 538Q611 516 601 474T574 380T537 270T496 163T457 74T428 20Z" />
<glyph unicode="W" glyph-name="W" horiz-adv-x="863" d="M345 458Q356 463 379 469T427 476Q469 476 497 464T531 427Q542 386 551 351T570 283T587 218T604 151H609Q618 212 625 267T638 376T650 482T662 589Q699 610 741 610Q778 610 805 594T832 540Q832 518
828 478T816 387T798 282T777 177T755 87T733 24Q718 10 684 1T614 -8Q567 -8 535 4T495 40Q482 80 467 135T435 256Q421 191 406 129T379 24Q364 10 334 1T268 -8Q223 -8 187 4T139 40Q130 58 120 93T98 174T76 273T55 379T37 482T25 575Q39 588 64 599T118 610Q156
610 180 594T211 538Q227 436 237 368T254 257T264 189T270 151H275Q284 191 292 225T308 293T326 367T345 458Z" />
<glyph unicode="X" glyph-name="X" horiz-adv-x="601" d="M296 186L169 -6Q161 -7 154 -7T140 -8Q83 -8 56 15T29 72Q29 101 41 122T77 173L182 307L23 532Q28 546 37 560T59 585T91 604T131 612Q160 612 182 598T227 548L305 428L421 602Q429 605 443 607T472
610Q517 610 542 588T568 534Q568 506 554 484T514 431Q488 399 464 368T414 306L580 72Q572 35 546 14T474 -8Q445 -8 425 6T381 56L296 186Z" />
<glyph unicode="Y" glyph-name="Y" horiz-adv-x="574" d="M562 535Q562 523 556 504T530 447T475 349T383 197V1Q372 -2 350 -5T304 -8Q252 -8 232 10T212 73V200Q186 237 156 284T97 381T44 478T5 561Q18 579 40 594T96 609Q135 609 159 593T206 533L294 356H300Q314
387 325 414T348 468T370 525T396 590Q414 599 436 604T478 609Q513 609 537 591T562 535Z" />
<glyph unicode="Z" glyph-name="Z" horiz-adv-x="560" d="M73 0Q56 14 45 38T34 93Q34 118 47 144T78 192L308 466H62Q54 478 49 495T43 535Q43 573 60 591T106 609H479Q523 573 523 513Q523 488 512 464T482 417L253 143H511Q518 131 524 113T530 73Q530 35 514
18T468 0H73V0Z" />
<glyph unicode="[" glyph-name="bracketleft" horiz-adv-x="303" d="M281 658Q288 648 293 632T298 597Q298 562 283 547T242 532H204V-5H281Q288 -15 293 -31T298 -66Q298 -101 283 -116T242 -131H122Q82 -131 64 -108T46 -55V582Q46 612 64 635T122 658H281Z" />
<glyph unicode="\" glyph-name="backslash" horiz-adv-x="360" d="M346 -20Q332 -35 307 -46T259 -57Q232 -57 212 -46T184 -3L10 633Q24 648 49 659T97 670Q124 670 144 659T172 616L346 -20Z" />
<glyph unicode="]" glyph-name="bracketright" horiz-adv-x="317" d="M22 -131Q15 -121 10 -105T5 -70Q5 -35 20 -20T61 -5H99V532H22Q15 542 10 558T5 593Q5 628 20 643T61 658H181Q221 658 239 635T257 582V-55Q257 -85 239 -108T181 -131H22Z" />
<glyph unicode="^" glyph-name="asciicircum" horiz-adv-x="488" d="M153 642Q165 652 189 659T243 666Q277 666 301 656T336 628Q348 612 364 578T398 502T430 418T453 343Q441 331 420 321T375 310Q344 310 327 323T296 371L240 528H236Q219 482 204 429T177
327Q162 318 143 314T106 310Q76 310 56 323T35 369Q35 387 47 422T77 498T115 577T153 642Z" />
<glyph unicode="_" glyph-name="underscore" horiz-adv-x="509" d="M17 -188Q10 -177 5 -161T0 -124Q0 -87 17 -71T61 -54H492Q498 -65 503 -83T509 -121Q509 -158 492 -173T448 -188H17Z" />
<glyph unicode="`" glyph-name="grave" horiz-adv-x="302" d="M18 646Q17 650 17 657T16 669Q16 706 37 726T89 747Q109 747 127 739T163 710L252 599Q247 564 226 547T181 530Q160 530 146 536T116 556L18 646Z" />
<glyph unicode="a" glyph-name="a" horiz-adv-x="544" d="M260 108Q277 108 297 111T328 121V201L256 195Q228 193 210 183T192 153Q192 133 207 121T260 108ZM252 501Q306 501 350 490T426 457T475 400T492 318V94Q492 68 478 52T443 23Q378 -16 260 -16Q207
-16 165 -6T92 24T45 75T28 147Q28 216 69 253T196 299L327 313V320Q327 349 302 361T228 374Q191 374 155 366T89 346Q76 355 67 373T58 412Q58 438 70 453T109 480Q138 491 177 496T252 501Z" />
<glyph unicode="b" glyph-name="b" horiz-adv-x="590" d="M322 501Q371 501 414 485T490 436T540 356T559 245Q559 182 540 134T485 52T400 2T288 -16Q222 -16 176 -1T98 38Q54 69 54 118V652Q65 655 85 658T130 661Q180 661 202 645T224 581V482Q244 490 268
495T322 501ZM290 368Q270 368 254 363T223 350V133Q234 127 249 123T286 118Q331 118 358 150T385 245Q385 309 360 338T290 368Z" />
<glyph unicode="c" glyph-name="c" horiz-adv-x="489" d="M326 367Q301 367 279 359T240 335T213 296T203 241Q203 179 238 149T325 119Q355 119 378 126T418 142Q437 128 446 112T456 73Q456 33 417 9T304 -15Q241 -15 191 1T105 50T50 130T31 241Q31 307 52
356T111 437T196 485T299 501Q371 501 410 475T449 408Q449 389 440 373T419 344Q402 352 378 359T326 367Z" />
<glyph unicode="d" glyph-name="d" horiz-adv-x="586" d="M288 501Q331 501 362 490V652Q373 655 393 658T438 661Q488 661 510 645T532 581V107Q532 60 488 32Q459 13 414 -1T308 -16Q177 -16 104 48T31 241Q31 307 51 356T105 437T187 485T288 501ZM363 357Q352
362 339 365T312 368Q260 368 232 337T203 241Q203 178 230 148T307 118Q325 118 340 122T363 131V357Z" />
<glyph unicode="e" glyph-name="e" horiz-adv-x="549" d="M198 176Q212 140 245 126T319 111Q361 111 399 121T460 146Q476 136 487 118T498 80Q498 55 484 37T445 7T384 -10T307 -16Q248 -16 198 0T110 50T52 133T31 250Q31 316 52 363T109 441T190 486T282 501Q335
501 378 485T453 441T502 374T519 289Q519 255 500 237T447 214L198 176ZM283 377Q245 377 220 354T189 289L359 317Q358 327 353 337T339 357T316 371T283 377Z" />
<glyph unicode="f" glyph-name="f" horiz-adv-x="430" d="M215 448H379Q385 437 390 421T396 384Q396 349 381 334T339 318H224V1Q213 -2 193 -5T148 -8Q98 -8 76 8T54 72V486Q54 537 71 573T119 633T189 668T276 679Q350 679 385 660T420 593Q420 573 412 557T393
533Q374 538 354 541T306 545Q263 545 239 531T215 480V448Z" />
<glyph unicode="g" glyph-name="g" horiz-adv-x="565" d="M352 37Q332 29 308 25T253 20Q208 20 168 32T97 73T48 147T30 257Q30 317 48 362T100 439T182 485T289 501Q317 501 344 497T394 486T437 471T469 454Q489 440 500 423T512 378V7Q512 -46 493 -84T439
-148T358 -186T258 -198Q204 -198 163 -190T98 -165Q62 -141 62 -97Q62 -74 71 -55T93 -27Q122 -43 158 -54T235 -65Q288 -65 320 -47T352 11V37ZM285 147Q305 147 320 151T349 164V356Q338 361 327 364T296 368Q253 368 226 342T199 256Q199 193 223 170T285 147Z"
/>
<glyph unicode="h" glyph-name="h" horiz-adv-x="585" d="M532 1Q521 -2 501 -5T456 -8Q406 -8 384 8T362 72V294Q362 335 342 351T291 368Q271 368 255 363T224 350V1Q213 -2 193 -5T148 -8Q98 -8 76 8T54 72V652Q65 655 85 658T130 661Q180 661 202 645T224
581V482Q244 490 269 495T323 501Q422 501 477 452T532 304V1V1Z" />
<glyph unicode="i" glyph-name="i" horiz-adv-x="282" d="M56 479Q67 482 87 485T132 488Q182 488 204 472T226 408V1Q215 -2 195 -5T150 -8Q100 -8 78 8T56 72V479ZM48 621Q48 659 73 685T141 711Q183 711 208 685T234 621Q234 583 209 557T141 531Q99 531 74
557T48 621Z" />
<glyph unicode="j" glyph-name="j" horiz-adv-x="287" d="M231 -9Q231 -58 220 -93T189 -150T143 -184T88 -195Q44 -195 19 -169T-7 -102Q29 -84 45 -60T61 7V479Q72 482 92 485T137 488Q187 488 209 472T231 408V-9ZM48 621Q48 659 73 685T141 711Q183 711 208
685T234 621Q234 583 209 557T141 531Q99 531 74 557T48 621Z" />
<glyph unicode="k" glyph-name="k" horiz-adv-x="555" d="M224 1Q213 -2 193 -5T148 -8Q98 -8 76 8T54 72V652Q65 655 85 658T130 661Q180 661 202 645T224 581V317L396 493Q448 493 479 470T511 412Q511 397 506 385T491 359T464 332T425 298L366 247L527 88Q522
41 500 16T434 -9Q402 -9 377 6T323 59L224 182V1V1Z" />
<glyph unicode="l" glyph-name="l" horiz-adv-x="284" d="M151 -8Q101 -8 79 8T57 72V652Q68 655 88 658T133 661Q183 661 205 645T227 581V1Q216 -2 196 -5T151 -8Z" />
<glyph unicode="m" glyph-name="m" horiz-adv-x="847" d="M794 1Q783 -2 763 -5T718 -8Q668 -8 646 8T624 72V311Q624 341 608 354T566 368Q549 368 534 362T507 348Q507 344 507 341T508 334V1Q497 -2 477 -5T432 -8Q382 -8 360 8T338 72V311Q338 341 321 354T278
368Q259 368 245 363T222 352V1Q211 -2 191 -5T146 -8Q96 -8 74 8T52 72V373Q52 400 63 417T95 448Q129 472 179 486T285 501Q326 501 363 490T434 456Q464 475 501 488T592 501Q630 501 666 491T731 460T777 403T794 316V1Z" />
<glyph unicode="n" glyph-name="n" horiz-adv-x="583" d="M530 1Q519 -2 499 -5T454 -8Q404 -8 382 8T360 72V308Q360 339 342 353T293 368Q273 368 256 363T222 350V1Q211 -2 191 -5T146 -8Q96 -8 74 8T52 72V373Q52 400 63 417T95 448Q129 472 180 486T295 501Q408
501 469 452T530 313V1Z" />
<glyph unicode="o" glyph-name="o" horiz-adv-x="586" d="M555 243Q555 183 537 135T484 54T401 2T293 -16Q233 -16 185 1T103 52T50 134T31 243Q31 302 50 350T103 431T186 483T293 501Q352 501 400 483T482 431T536 349T555 243ZM293 368Q251 368 228 336T205
243Q205 180 228 149T293 117Q335 117 358 149T381 243Q381 303 358 335T293 368Z" />
<glyph unicode="p" glyph-name="p" horiz-adv-x="585" d="M303 -15Q279 -15 259 -12T222 -2V-178Q211 -181 191 -184T146 -187Q96 -187 74 -171T52 -107V380Q52 407 63 425T95 456Q126 476 174 488T283 501Q343 501 393 486T479 440T534 361T554 246Q554 182 535
134T482 52T403 2T303 -15ZM277 119Q327 119 353 151T380 246Q380 310 356 339T283 368Q264 368 248 364T221 353V133Q233 127 247 123T277 119Z" />
<glyph unicode="q" glyph-name="q" horiz-adv-x="587" d="M533 -181Q522 -184 502 -187T457 -190Q407 -190 385 -174T363 -110V-3Q346 -9 326 -12T282 -16Q227 -16 181 0T102 49T50 129T31 241Q31 305 50 353T106 435T194 484T308 501Q336 501 363 497T414 487T457
473T490 456Q510 442 521 425T533 380V-181ZM307 118Q340 118 364 131V356Q356 361 343 364T312 368Q260 368 232 337T203 241Q203 178 230 148T307 118Z" />
<glyph unicode="r" glyph-name="r" horiz-adv-x="411" d="M222 1Q211 -2 191 -5T146 -8Q96 -8 74 8T52 72V369Q52 398 67 419T108 457Q143 478 189 489T287 500Q396 500 396 423Q396 405 391 390T379 363Q360 367 324 367Q298 367 271 361T222 343V1Z" />
<glyph unicode="s" glyph-name="s" horiz-adv-x="492" d="M462 145Q462 69 405 26T237 -17Q195 -17 159 -11T98 7T58 39T43 84Q43 108 53 124T77 152Q106 136 143 124T230 111Q261 111 277 120T294 144Q294 158 282 166T242 179L212 185Q125 202 83 238T40 343Q40
380 56 410T101 460T170 491T260 502Q297 502 329 497T386 480T424 452T438 410Q438 387 430 371T408 343Q400 348 384 353T349 363T311 371T275 374Q242 374 224 367T206 343Q206 332 216 325T254 312L285 305Q381 283 421 245T462 145Z" />
<glyph unicode="t" glyph-name="t" horiz-adv-x="397" d="M237 -15Q149 -15 102 25T54 155V599Q65 602 85 605T129 609Q178 609 200 592T222 529V475H353Q359 464 364 448T370 411Q370 376 355 361T313 345H222V167Q222 141 238 130T285 119Q300 119 316 121T344
128Q353 117 359 104T366 71Q366 33 338 9T237 -15Z" />
<glyph unicode="u" glyph-name="u" horiz-adv-x="582" d="M52 484Q63 487 83 490T128 493Q178 493 200 477T222 413V193Q222 152 242 135T300 117Q323 117 337 121T360 129V484Q371 487 391 490T436 493Q486 493 508 477T530 413V104Q530 54 488 29Q453 7 405
-4T299 -16Q245 -16 200 -4T121 33T70 97T52 193V484Z" />
<glyph unicode="v" glyph-name="v" horiz-adv-x="545" d="M438 496Q473 496 497 481T521 429Q521 413 514 383T495 314T468 232T437 149T405 73T377 15Q363 4 336 -3T275 -10Q236 -10 208 0T168 32Q159 49 147 79T120 147T91 227T63 311T38 392T20 461Q34 475
57 485T109 496Q144 496 166 482T200 427L239 274Q250 229 260 193T275 136H280Q299 210 320 300T358 477Q375 486 396 491T438 496Z" />
<glyph unicode="w" glyph-name="w" horiz-adv-x="791" d="M400 273Q393 238 383 201T363 129T343 65T329 17Q315 5 291 -2T234 -10Q193 -10 163 1T123 34Q116 50 107 79T89 144T70 223T52 307T36 388T23 461Q37 475 60 485T112 496Q147 496 169 481T197 427Q207
351 214 302T225 221T232 173T237 146H241Q244 162 251 192T269 262T290 346T312 437Q332 448 351 454T400 460Q435 460 460 449T492 415Q504 371 515 330T535 253T551 190T561 146H566Q577 223 587 306T607 475Q625 486 645 491T685 496Q720 496 743 481T766 429Q766
413 761 382T748 310T730 226T709 142T689 68T672 17Q658 5 629 -2T567 -10Q483 -10 468 32Q462 50 453 77T434 137T415 204T400 273Z" />
<glyph unicode="x" glyph-name="x" horiz-adv-x="523" d="M28 64Q28 88 39 106T79 157L158 249L25 407Q33 445 56 469T115 493Q148 493 166 477T206 432L269 348Q296 384 323 419T377 492Q382 493 386 493T394 493Q441 493 468 473T496 421Q496 408 493 397T484
375T466 350T438 318L371 244L503 71Q498 33 473 11T413 -11Q375 -10 353 11T309 62L255 139L153 -8Q148 -8 142 -8T132 -9Q81 -9 55 12T28 64Z" />
<glyph unicode="y" glyph-name="y" horiz-adv-x="551" d="M128 124Q117 149 105 180T79 251T51 342T20 461Q34 475 57 485T109 496Q144 496 167 482T201 427Q221 357 240 289T280 152H284Q296 186 307 226T330 308T350 393T367 477Q384 486 402 491T440 496Q475
496 501 481T527 429Q527 389 515 334T482 219T437 102T387 2Q330 -96 283 -142T186 -189Q146 -189 119 -164T87 -99Q119 -72 151 -38T207 31Q190 36 171 54T128 124Z" />
<glyph unicode="z" glyph-name="z" horiz-adv-x="481" d="M410 485Q426 471 435 452T445 409Q445 389 436 370T412 333L244 131H440Q446 120 451 103T457 66Q457 31 442 16T400 0H69Q53 14 44 33T34 76Q34 96 43 115T67 152L239 354H55Q49 365 44 382T38 419Q38
454 53 469T95 485H410V485Z" />
<glyph unicode="{" glyph-name="braceleft" horiz-adv-x="337" d="M199 266Q253 240 253 156V45Q253 11 269 -3T308 -24Q310 -32 310 -38T310 -51Q310 -96 286 -115T223 -135Q168 -135 132 -100T96 6V110Q96 154 81 177T31 209Q28 221 26 235T24 266Q24 282 26
296T31 323Q65 332 80 355T96 422V523Q96 594 133 629T226 664Q266 664 288 646T310 580Q310 574 310 568T308 553Q286 547 270 533T253 484V376Q253 291 199 266Z" />
<glyph unicode="|" glyph-name="bar" horiz-adv-x="281" d="M216 -169Q206 -171 187 -173T149 -176Q109 -176 87 -163T65 -106V676Q75 678 94 680T132 683Q172 683 194 670T216 612V-169Z" />
<glyph unicode="}" glyph-name="braceright" horiz-adv-x="337" d="M138 266Q84 291 84 376V484Q84 518 68 532T29 553Q27 561 27 567T27 580Q27 627 49 645T111 664Q166 664 203 629T241 523V422Q241 378 256 355T306 323Q309 311 311 297T313 266Q313 250 311
236T306 209Q272 200 257 177T241 110V6Q241 -65 205 -100T114 -135Q75 -135 51 -116T27 -51Q27 -45 27 -39T29 -24Q51 -18 67 -4T84 45V156Q84 240 138 266Z" />
<glyph unicode="~" glyph-name="asciitilde" horiz-adv-x="503" d="M325 313Q349 313 362 326T385 354Q406 354 424 347T457 328T479 299T487 260Q487 234 477 215T451 183T412 164T366 158Q342 158 319 163T273 174T227 186T179 191Q154 191 141 177T119 151Q99
151 81 158T48 177T26 206T18 245Q18 272 29 291T57 322T96 341T138 347Q163 347 187 342T234 330T279 319T325 313Z" />
<glyph unicode="&#xa0;" glyph-name="uni00A0" horiz-adv-x="200" />
<glyph unicode="&#xa1;" glyph-name="exclamdown" horiz-adv-x="298" d="M61 -88Q61 -65 62 -25T66 61T74 155T86 239Q90 242 98 245T115 250T133 253T149 254Q178 254 197 245T222 210Q226 187 230 144T237 50T241 -52T243 -141Q223 -152 198 -158T147 -165Q106
-165 84 -146T61 -88ZM245 394Q245 352 220 326T149 300Q104 300 79 326T53 394Q53 436 78 462T149 488Q194 488 219 462T245 394Z" />
<glyph unicode="&#xa2;" glyph-name="cent" horiz-adv-x="492" d="M324 367Q299 367 277 359T238 335T211 296T201 241Q201 179 236 149T323 119Q353 119 376 126T416 142Q435 128 444 112T454 73Q454 38 424 15T336 -13V-86Q326 -89 308 -91T269 -94Q225 -94
206 -80T186 -23V2Q111 28 70 87T29 241Q29 338 73 397T186 482V574Q196 577 214 579T253 582Q297 582 316 568T336 511V498Q390 491 418 467T447 408Q447 389 438 373T417 344Q400 352 376 359T324 367Z" />
<glyph unicode="&#xa3;" glyph-name="sterling" horiz-adv-x="504" d="M116 240H95Q69 240 54 255T38 308Q38 327 44 343T55 371H103Q102 382 102 392T101 411Q101 467 119 507T169 574T243 612T332 625Q400 625 435 602T471 534Q471 514 462 496T442 469Q425
478 406 483T360 489Q317 489 293 470T268 405Q268 397 268 389T269 371H401Q406 360 412 344T418 308Q418 270 403 255T361 240H281V227Q281 172 251 132H472Q478 121 483 104T489 67Q489 31 473 16T431 0H100Q74 0 55 20T35 79Q35 84 35 86T36 94Q76 112 96 142T116
229V240Z" />
<glyph unicode="&#xa4;" glyph-name="currency" horiz-adv-x="565" d="M493 291Q493 252 482 221T452 164L506 99Q495 73 479 61T443 49Q425 49 411 63T382 94L372 106Q329 89 280 89Q254 89 231 93T185 106L139 45Q111 50 90 63T69 99Q69 113 77 128T99 161L103
167Q85 191 75 222T65 291Q65 329 75 360T105 417L55 478Q66 504 82 516T118 528Q136 528 150 514T179 483L184 475Q227 493 278 493Q333 493 379 473L424 532Q452 527 473 514T494 478Q494 464 486 449T464 416L458 409Q475 385 484 356T493 291ZM352 291Q352
336 332 359T279 382Q247 382 227 359T206 291Q206 246 226 223T279 200Q311 200 331 223T352 291Z" />
<glyph unicode="&#xa5;" glyph-name="yen" horiz-adv-x="597" d="M559 538Q559 529 556 517T544 485T519 435T475 359H537Q542 349 546 336T551 307Q551 278 538 266T504 254H74Q69 262 65 276T60 305Q60 334 73 346T106 359H139Q107 413 79 466T33 562Q46 580
67 594T120 609Q158 609 182 594T227 536L306 376H312Q326 406 336 431T355 480T375 530T399 591Q416 599 438 604T479 609Q513 609 536 591T559 538ZM390 102V1Q379 -2 357 -5T311 -8Q259 -8 239 10T219 73V102H74Q69 110 65 124T60 153Q60 182 73 194T106 207H537Q542
197 546 184T551 155Q551 126 538 114T504 102H390Z" />
<glyph unicode="&#xa6;" glyph-name="brokenbar" horiz-adv-x="293" d="M216 313Q206 311 187 309T149 306Q109 306 87 319T65 376V676Q75 678 94 680T132 683Q172 683 194 670T216 612V313ZM216 -169Q206 -171 187 -173T149 -176Q109 -176 87 -163T65 -106V194Q75
196 94 198T132 201Q172 201 194 188T216 130V-169Z" />
<glyph unicode="&#xa7;" glyph-name="section" horiz-adv-x="546" d="M496 278Q496 250 485 225T455 183Q496 148 496 90Q496 17 434 -25T251 -68Q208 -68 172 -62T109 -44T68 -12T53 33Q53 57 63 73T87 101Q116 85 154 73T244 60Q292 60 310 69T328 93Q328 107
317 113T276 124L217 133Q129 147 90 183T50 284Q50 342 92 376Q53 412 53 473Q53 509 69 537T114 584T183 614T273 625Q311 625 345 620T405 603T446 575T461 533Q461 510 453 494T431 466Q423 471 406 476T369 486T328 494T288 497Q256 497 238 490T219 466Q219
455 229 450T264 440L320 432Q411 419 453 379T496 278ZM208 289Q208 278 218 266T255 248L326 233Q338 251 338 268Q338 282 326 294T285 311L219 323Q213 315 211 306T208 289Z" />
<glyph unicode="&#xa8;" glyph-name="dieresis" horiz-adv-x="374" d="M163 630Q163 595 140 572T78 548Q40 548 17 571T-6 630Q-6 665 17 689T78 713Q116 713 139 689T163 630ZM378 630Q378 595 355 572T294 548Q256 548 233 571T209 630Q209 665 232 689T294
713Q332 713 355 689T378 630Z" />
<glyph unicode="&#xa9;" glyph-name="copyright" horiz-adv-x="713" d="M35 308Q35 373 58 430T123 529T224 595T355 619Q427 619 486 595T588 529T654 430T678 308Q678 242 655 186T588 88T486 22T355 -2Q283 -2 224 22T123 87T58 185T35 308ZM355 529Q305 529
266 513T199 467T157 397T142 308Q142 260 156 220T199 151T266 106T355 90Q405 90 444 106T511 151T553 220T568 308Q568 356 554 396T512 466T445 512T355 529ZM394 373Q367 373 348 357T329 312Q329 281 347 264T393 247Q412 247 425 252T449 262Q472 242 472
212Q472 189 444 172T371 155Q338 155 310 165T260 196T227 245T215 313Q215 352 229 380T267 428T318 456T375 466Q417 466 442 450T467 408Q467 379 447 359Q438 364 425 368T394 373Z" />
<glyph unicode="&#xaa;" glyph-name="ordfeminine" horiz-adv-x="355" d="M164 367Q176 367 189 369T209 375V428L162 424Q144 422 132 416T120 396Q120 383 130 375T164 367ZM159 623Q231 623 273 594T315 504V358Q315 341 306 331T283 312Q243 287 164 287Q95
287 55 313T14 392Q14 438 40 462T123 492L208 501V505Q208 541 144 541Q120 541 96 536T53 522Q45 528 40 540T34 565Q34 596 66 609Q85 617 110 620T159 623Z" />
<glyph unicode="&#xab;" glyph-name="guillemotleft" horiz-adv-x="574" d="M293 94Q293 65 274 42T215 19Q193 19 176 30T141 60L44 158Q38 168 34 184T29 217Q29 249 37 268T57 299L204 441Q242 430 261 410T281 365Q281 354 280 345T273 326T259 306T235 282L169
221L293 94ZM542 94Q542 65 523 42T464 19Q442 19 425 30T390 60L293 158Q287 168 283 184T278 217Q278 249 286 268T306 299L453 441Q491 430 510 410T530 365Q530 354 529 345T522 326T508 306T484 282L418 221L542 94Z" />
<glyph unicode="&#xac;" glyph-name="logicalnot" horiz-adv-x="528" d="M423 448Q458 448 478 428T498 373V182Q488 179 467 177T425 174Q404 174 388 177T362 188T346 211T340 249V318H47Q41 329 36 345T30 382Q30 417 45 432T87 448H423Z" />
<glyph unicode="&#xad;" glyph-name="uni00AD" horiz-adv-x="354" d="M49 186Q42 197 36 215T30 253Q30 290 47 306T91 323H305Q311 312 317 294T324 256Q324 219 307 203T263 186H49Z" />
<glyph unicode="&#xae;" glyph-name="registered" horiz-adv-x="619" d="M37 372Q37 427 56 475T112 558T198 614T309 635Q369 635 419 615T505 559T562 475T582 372Q582 317 562 269T506 186T419 131T309 110Q248 110 198 130T112 186T57 269T37 372ZM127 372Q127
331 139 298T176 240T233 202T309 188Q351 188 384 201T441 239T476 297T489 372Q489 412 477 446T441 506T385 545T309 559Q267 559 234 545T176 506T140 447T127 372ZM290 336V260Q284 259 275 258T252 257Q235 257 226 263T216 289V476Q216 489 232 495Q246
500 264 502T302 504Q357 504 384 482T412 419Q412 393 400 377T369 351L419 283Q415 269 404 262T379 255Q361 255 351 263T332 286L300 336H290ZM305 390Q320 390 329 396T338 419Q338 447 304 447Q299 447 296 447T290 446V390H305Z" />
<glyph unicode="&#xaf;" glyph-name="overscore" horiz-adv-x="364" d="M30 564Q25 575 20 591T14 626Q14 663 29 677T69 692H334Q342 681 346 665T350 630Q350 593 336 579T296 564H30Z" />
<glyph unicode="&#xb0;" glyph-name="degree" horiz-adv-x="361" d="M345 475Q345 439 333 412T298 365T246 336T181 326Q145 326 115 336T63 365T29 411T16 475Q16 510 28 537T63 584T115 613T181 623Q216 623 246 613T298 584T332 538T345 475ZM181 527Q162
527 148 515T134 475Q134 446 148 434T181 421Q200 421 213 433T227 475Q227 503 214 515T181 527Z" />
<glyph unicode="&#xb1;" glyph-name="plusminus" horiz-adv-x="525" d="M341 448H468Q474 437 479 419T485 381Q485 344 468 329T424 314H341V191Q331 189 310 186T270 183Q229 183 208 196T187 254V314H57Q50 325 45 341T40 378Q40 415 57 431T101 448H187V567Q197
569 217 572T257 576Q297 576 319 562T341 504V448ZM57 0Q50 11 45 27T40 64Q40 101 57 117T101 134H468Q474 123 479 105T485 67Q485 30 468 15T424 0H57Z" />
<glyph unicode="&#xb2;" glyph-name="twosuperior" horiz-adv-x="280" d="M125 701Q185 701 219 673T253 595Q253 564 234 536T183 483L144 452H248Q251 445 254 435T258 413Q258 391 249 382T223 373H46Q35 381 29 392T22 420Q22 457 36 468L109 532Q124 545
133 554T146 570T152 582T154 592Q154 605 144 613T116 622Q94 622 79 616T53 602Q45 609 39 620T33 647Q33 674 57 687T125 701Z" />
<glyph unicode="&#xb3;" glyph-name="threesuperior" horiz-adv-x="286" d="M122 574Q155 574 155 597Q155 622 112 622Q92 622 76 617T47 605Q23 621 23 649Q23 676 51 689T128 702Q188 702 221 676T254 607Q254 586 242 568T212 541Q232 532 246 513T261 463Q261
418 224 392T128 365Q72 365 43 381T14 423Q14 437 21 449T41 467Q57 458 74 452T116 445Q139 445 150 452T162 472Q162 499 124 499H77Q73 505 70 514T67 536Q67 561 77 574H122Z" />
<glyph unicode="&#xb4;" glyph-name="acute" horiz-adv-x="298" d="M177 752Q229 752 255 730T281 680Q281 657 271 642T237 606L142 528Q97 528 75 549T53 594Q53 606 57 617T76 643L177 752Z" />
<glyph unicode="&#xb5;" glyph-name="mu" horiz-adv-x="582" d="M530 104Q530 57 488 29Q459 10 421 -3T325 -16Q285 -16 257 -8T209 16Q214 -22 218 -56T222 -126V-160Q208 -167 189 -171T146 -176Q96 -176 74 -160T52 -96V484Q63 487 83 490T128 493Q178 493
200 477T222 413V193Q222 152 242 135T300 117Q323 117 337 121T360 129V484Q371 487 391 490T436 493Q486 493 508 477T530 413V104V104Z" />
<glyph unicode="&#xb6;" glyph-name="paragraph" horiz-adv-x="550" d="M401 613Q423 613 440 610T470 598T488 574T495 533V-69Q484 -71 463 -74T419 -78Q397 -78 380 -75T350 -63T332 -39T325 2V470H256V227Q256 214 241 206T193 197Q161 197 129 209T72 245T32
307T16 397Q16 451 35 491T86 559T162 599T253 613H401Z" />
<glyph unicode="&#xb7;" glyph-name="middot" horiz-adv-x="238" d="M22 271Q22 313 48 341T119 369Q164 369 190 341T216 271Q216 229 190 201T119 173Q74 173 48 201T22 271Z" />
<glyph unicode="&#xb8;" glyph-name="cedilla" horiz-adv-x="195" d="M126 38Q164 17 179 -15T194 -84Q194 -135 162 -168T73 -202Q31 -202 6 -182T-20 -123Q-20 -106 -16 -93H-6Q25 -93 38 -78T52 -41Q52 -31 48 -18T35 5L126 38Z" />
<glyph unicode="&#xb9;" glyph-name="onesuperior" horiz-adv-x="222" d="M82 589L41 577Q29 583 18 596T7 630Q7 648 16 659T39 675L111 701H127Q151 701 165 686T180 647V375Q174 373 162 371T135 369Q109 369 96 378T82 415V589Z" />
<glyph unicode="&#xba;" glyph-name="ordmasculine" horiz-adv-x="396" d="M365 456Q365 375 318 332T195 288Q118 288 72 333T25 456Q25 533 71 578T195 623Q233 623 264 611T317 578T352 525T365 456ZM195 537Q168 537 153 516T138 456Q138 416 153 395T195
374Q222 374 237 395T252 456Q252 494 237 515T195 537Z" />
<glyph unicode="&#xbb;" glyph-name="guillemotright" horiz-adv-x="574" d="M281 366Q281 395 300 418T359 441Q381 441 398 430T433 400L530 302Q536 292 540 276T545 243Q545 211 537 192T517 161L370 19Q332 30 313 50T293 95Q293 117 301 134T339 178L405
239L281 366ZM32 366Q32 395 51 418T110 441Q132 441 149 430T184 400L281 302Q287 292 291 276T296 243Q296 211 288 192T268 161L121 19Q83 30 64 50T44 95Q44 117 52 134T90 178L156 239L32 366Z" />
<glyph unicode="&#xbc;" glyph-name="onequarter" horiz-adv-x="630" d="M82 509L41 497Q29 503 18 516T7 550Q7 568 16 579T39 595L111 621H127Q151 621 165 606T180 567V295Q174 293 162 291T135 289Q109 289 96 298T82 335V509ZM479 61H356Q343 67 335 79T326
111Q326 137 340 157L454 316Q464 318 477 320T505 323Q529 323 550 313T572 273V139H615Q618 133 621 123T624 100Q624 79 615 70T591 61H572V1Q566 -1 554 -2T529 -4Q505 -4 492 4T479 39V61ZM482 176Q482 184 482 198T483 229L429 139H482V176ZM445 617Q476
612 495 600T517 566Q517 551 510 536T490 503L139 -7Q108 -2 89 10T67 44Q67 59 74 74T94 107L445 617Z" />
<glyph unicode="&#xbd;" glyph-name="onehalf" horiz-adv-x="636" d="M82 509L41 497Q29 503 18 516T7 550Q7 568 16 579T39 595L111 621H127Q151 621 165 606T180 567V295Q174 293 162 291T135 289Q109 289 96 298T82 335V509ZM481 330Q541 330 575 302T609 224Q609
193 590 165T539 112L500 81H604Q607 74 610 64T614 42Q614 20 605 11T579 2H402Q391 10 385 21T378 49Q378 86 392 97L465 161Q480 174 489 183T502 199T508 211T510 221Q510 234 500 242T472 251Q450 251 435 245T409 231Q401 238 395 249T389 276Q389 303 413
316T481 330ZM445 617Q476 612 495 600T517 566Q517 551 510 536T490 503L139 -7Q108 -2 89 10T67 44Q67 59 74 74T94 107L445 617Z" />
<glyph unicode="&#xbe;" glyph-name="threequarters" horiz-adv-x="686" d="M122 498Q155 498 155 521Q155 546 112 546Q92 546 76 541T47 529Q23 545 23 573Q23 600 51 613T128 626Q188 626 221 600T254 531Q254 510 242 492T212 465Q232 456 246 437T261 387Q261
342 224 316T128 289Q72 289 43 305T14 347Q14 361 21 373T41 391Q57 382 74 376T116 369Q139 369 150 376T162 396Q162 423 124 423H77Q73 429 70 438T67 460Q67 485 77 498H122ZM534 61H411Q398 67 390 79T381 111Q381 137 395 157L509 316Q519 318 532 320T560
323Q584 323 605 313T627 273V139H670Q673 133 676 123T679 100Q679 79 670 70T646 61H627V1Q621 -1 609 -2T584 -4Q560 -4 547 4T534 39V61ZM537 176Q537 184 537 198T538 229L484 139H537V176ZM500 617Q531 612 550 600T572 566Q572 551 565 536T545 503L194
-7Q163 -2 144 10T122 44Q122 59 129 74T149 107L500 617Z" />
<glyph unicode="&#xbf;" glyph-name="questiondown" horiz-adv-x="498" d="M351 261Q368 250 383 228T398 173Q398 142 382 127T333 103L255 84Q229 76 217 65T205 30Q205 11 223 -5T287 -22Q328 -22 364 -12T422 13Q439 0 451 -18T463 -63Q463 -89 448 -108T407
-140T343 -159T263 -165Q204 -165 160 -151T85 -110T40 -48T24 30Q24 117 80 167T250 241L351 261ZM384 394Q384 352 359 326T288 300Q243 300 218 326T192 394Q192 436 217 462T288 488Q333 488 358 462T384 394Z" />
<glyph unicode="&#xc0;" glyph-name="Agrave" horiz-adv-x="627" d="M403 126H222Q212 90 205 59T190 1Q176 -4 161 -7T123 -11Q72 -11 48 6T23 55Q23 69 27 83T36 116Q43 143 55 183T83 270T115 365T147 457T174 535T194 588Q211 598 245 607T315 616Q365 616
403 602T453 555Q471 504 492 435T534 293T575 148T610 21Q598 7 574 -1T517 -10Q468 -10 449 6T421 57L403 126ZM314 459Q300 418 283 368T250 261H374Q360 318 346 368T320 459H314ZM153 739Q152 743 152 750T151 762Q151 799 172 819T224 840Q244 840 261 831T298
803L384 718Q379 683 358 666T313 649Q292 649 277 656T245 675L153 739Z" />
<glyph unicode="&#xc1;" glyph-name="Aacute" horiz-adv-x="627" d="M403 126H222Q212 90 205 59T190 1Q176 -4 161 -7T123 -11Q72 -11 48 6T23 55Q23 69 27 83T36 116Q43 143 55 183T83 270T115 365T147 457T174 535T194 588Q211 598 245 607T315 616Q365 616
403 602T453 555Q471 504 492 435T534 293T575 148T610 21Q598 7 574 -1T517 -10Q468 -10 449 6T421 57L403 126ZM314 459Q300 418 283 368T250 261H374Q360 318 346 368T320 459H314ZM387 846Q429 846 452 826T476 775Q476 755 467 739T429 706L329 648Q289 648
269 666T248 708Q248 720 251 731T271 756L387 846Z" />
<glyph unicode="&#xc2;" glyph-name="Acircumflex" horiz-adv-x="627" d="M324 734Q300 711 276 689T230 649Q199 649 178 667T157 712Q157 733 167 748T204 784L233 806Q262 828 284 837T326 847Q352 847 373 838T417 805L498 724Q498 688 480 670T429 652Q409
652 392 665T351 704L324 734ZM403 126H222Q212 90 205 59T190 1Q176 -4 161 -7T123 -11Q72 -11 48 6T23 55Q23 69 27 83T36 116Q43 143 55 183T83 270T115 365T147 457T174 535T194 588Q211 598 245 607T315 616Q365 616 403 602T453 555Q471 504 492 435T534
293T575 148T610 21Q598 7 574 -1T517 -10Q468 -10 449 6T421 57L403 126ZM314 459Q300 418 283 368T250 261H374Q360 318 346 368T320 459H314Z" />
<glyph unicode="&#xc3;" glyph-name="Atilde" horiz-adv-x="627" d="M403 126H222Q212 90 205 59T190 1Q176 -4 161 -7T123 -11Q72 -11 48 6T23 55Q23 69 27 83T36 116Q43 143 55 183T83 270T115 365T147 457T174 535T194 588Q211 598 245 607T315 616Q365 616
403 602T453 555Q471 504 492 435T534 293T575 148T610 21Q598 7 574 -1T517 -10Q468 -10 449 6T421 57L403 126ZM314 459Q300 418 283 368T250 261H374Q360 318 346 368T320 459H314ZM231 843Q252 843 272 839T310 829T344 819T372 814Q394 814 406 827T423 849H427Q459
849 482 827T505 769Q505 724 477 703T407 682Q383 682 363 686T325 696T293 706T266 711Q244 711 233 699T215 676H211Q180 676 157 698T133 756Q133 778 141 794T164 822T195 838T231 843Z" />
<glyph unicode="&#xc4;" glyph-name="Adieresis" horiz-adv-x="627" d="M403 126H222Q212 90 205 59T190 1Q176 -4 161 -7T123 -11Q72 -11 48 6T23 55Q23 69 27 83T36 116Q43 143 55 183T83 270T115 365T147 457T174 535T194 588Q211 598 245 607T315 616Q365
616 403 602T453 555Q471 504 492 435T534 293T575 148T610 21Q598 7 574 -1T517 -10Q468 -10 449 6T421 57L403 126ZM314 459Q300 418 283 368T250 261H374Q360 318 346 368T320 459H314ZM294 748Q294 713 271 690T209 666Q171 666 148 689T125 748Q125 783 148
807T209 831Q247 831 270 807T294 748ZM509 748Q509 713 486 690T425 666Q387 666 364 689T340 748Q340 783 363 807T425 831Q463 831 486 807T509 748Z" />
<glyph unicode="&#xc5;" glyph-name="Aring" horiz-adv-x="627" d="M403 126H222Q212 90 205 59T190 1Q176 -4 161 -7T123 -11Q72 -11 48 6T23 55Q23 69 27 83T36 116Q43 143 55 183T83 270T115 365T147 457T174 535T194 588Q211 598 245 607T315 616Q365 616
403 602T453 555Q471 504 492 435T534 293T575 148T610 21Q598 7 574 -1T517 -10Q468 -10 449 6T421 57L403 126ZM314 459Q300 418 283 368T250 261H374Q360 318 346 368T320 459H314ZM189 754Q189 800 224 831T321 863Q386 863 422 832T458 754Q458 708 422 677T321
646Q260 646 225 677T189 754ZM290 754Q290 740 299 732T322 723Q337 723 346 731T356 754Q356 768 347 776T322 785Q309 785 300 777T290 754Z" />
<glyph unicode="&#xc6;" glyph-name="AE" horiz-adv-x="875" d="M485 -3Q442 -3 417 22T392 90V126H237L182 2Q168 -3 154 -6T118 -10Q72 -10 50 7T28 56Q28 70 31 84T43 117Q56 145 74 184T115 269T160 361T204 450T243 526T272 581Q286 592 314 601T378 611Q398
611 424 607T472 592Q495 606 524 606H815Q822 595 827 578T833 540Q833 503 817 486T773 469H562V376H787Q794 365 799 348T805 310Q805 273 789 257T745 240H562V135H819Q826 124 831 106T837 67Q837 30 821 14T777 -3H485ZM298 261H392V459H386L298 261Z" />
<glyph unicode="&#xc7;" glyph-name="Ccedilla" horiz-adv-x="571" d="M541 518Q541 492 528 473T498 443Q472 460 443 472T374 484Q297 484 256 437T215 303Q215 214 259 169T383 123Q424 123 452 134T507 159Q524 145 533 126T543 80Q543 57 531 38T490 6Q479
1 463 -4T425 -13Q442 -43 442 -84Q442 -135 410 -168T321 -202Q279 -202 254 -182T228 -123Q228 -106 232 -93H242Q273 -93 286 -78T300 -41Q300 -28 294 -13Q238 -5 191 17T109 79T55 173T35 303Q35 381 59 441T126 542T226 604T348 625Q440 625 490 595T541
518Z" />
<glyph unicode="&#xc8;" glyph-name="Egrave" horiz-adv-x="548" d="M158 -3Q115 -3 90 22T65 90V513Q65 556 90 581T158 606H488Q495 595 500 578T506 540Q506 503 490 486T446 469H235V376H460Q467 365 472 348T478 310Q478 273 462 257T418 240H235V135H492Q499
124 504 106T510 67Q510 30 494 14T450 -3H158ZM146 739Q145 743 145 750T144 762Q144 799 165 819T217 840Q237 840 254 831T291 803L377 718Q372 683 351 666T306 649Q285 649 270 656T238 675L146 739Z" />
<glyph unicode="&#xc9;" glyph-name="Eacute" horiz-adv-x="548" d="M158 -3Q115 -3 90 22T65 90V513Q65 556 90 581T158 606H488Q495 595 500 578T506 540Q506 503 490 486T446 469H235V376H460Q467 365 472 348T478 310Q478 273 462 257T418 240H235V135H492Q499
124 504 106T510 67Q510 30 494 14T450 -3H158ZM375 846Q417 846 440 826T464 775Q464 755 455 739T417 706L317 648Q277 648 257 666T236 708Q236 720 239 731T259 756L375 846Z" />
<glyph unicode="&#xca;" glyph-name="Ecircumflex" horiz-adv-x="548" d="M158 -3Q115 -3 90 22T65 90V513Q65 556 90 581T158 606H488Q495 595 500 578T506 540Q506 503 490 486T446 469H235V376H460Q467 365 472 348T478 310Q478 273 462 257T418 240H235V135H492Q499
124 504 106T510 67Q510 30 494 14T450 -3H158ZM293 734Q269 711 245 689T199 649Q168 649 147 667T126 712Q126 733 136 748T173 784L202 806Q231 828 253 837T295 847Q321 847 342 838T386 805L467 724Q467 688 449 670T398 652Q378 652 361 665T320 704L293
734Z" />
<glyph unicode="&#xcb;" glyph-name="Edieresis" horiz-adv-x="548" d="M158 -3Q115 -3 90 22T65 90V513Q65 556 90 581T158 606H488Q495 595 500 578T506 540Q506 503 490 486T446 469H235V376H460Q467 365 472 348T478 310Q478 273 462 257T418 240H235V135H492Q499
124 504 106T510 67Q510 30 494 14T450 -3H158ZM265 748Q265 713 242 690T180 666Q142 666 119 689T96 748Q96 783 119 807T180 831Q218 831 241 807T265 748ZM480 748Q480 713 457 690T396 666Q358 666 335 689T311 748Q311 783 334 807T396 831Q434 831 457 807T480
748Z" />
<glyph unicode="&#xcc;" glyph-name="Igrave" horiz-adv-x="305" d="M159 -8Q106 -8 86 10T65 75V608Q77 610 100 613T146 617Q196 617 218 600T240 534V1Q229 -2 206 -5T159 -8ZM-20 739Q-21 743 -21 750T-22 762Q-22 799 -1 819T51 840Q71 840 88 831T125 803L211
718Q206 683 185 666T140 649Q119 649 104 656T72 675L-20 739Z" />
<glyph unicode="&#xcd;" glyph-name="Iacute" horiz-adv-x="305" d="M159 -8Q106 -8 86 10T65 75V608Q77 610 100 613T146 617Q196 617 218 600T240 534V1Q229 -2 206 -5T159 -8ZM217 846Q259 846 282 826T306 775Q306 755 297 739T259 706L159 648Q119 648 99
666T78 708Q78 720 81 731T101 756L217 846Z" />
<glyph unicode="&#xce;" glyph-name="Icircumflex" horiz-adv-x="305" d="M159 -8Q106 -8 86 10T65 75V608Q77 610 100 613T146 617Q196 617 218 600T240 534V1Q229 -2 206 -5T159 -8ZM152 734Q128 711 104 689T58 649Q27 649 6 667T-15 712Q-15 733 -5 748T32
784L61 806Q90 828 112 837T154 847Q180 847 201 838T245 805L326 724Q326 688 308 670T257 652Q237 652 220 665T179 704L152 734Z" />
<glyph unicode="&#xcf;" glyph-name="Idieresis" horiz-adv-x="305" d="M159 -8Q106 -8 86 10T65 75V608Q77 610 100 613T146 617Q196 617 218 600T240 534V1Q229 -2 206 -5T159 -8ZM124 748Q124 713 101 690T39 666Q1 666 -22 689T-45 748Q-45 783 -22 807T39
831Q77 831 100 807T124 748ZM339 748Q339 713 316 690T255 666Q217 666 194 689T170 748Q170 783 193 807T255 831Q293 831 316 807T339 748Z" />
<glyph unicode="&#xd0;" glyph-name="Eth" horiz-adv-x="700" d="M665 304Q665 224 641 164T573 64T466 4T329 -16Q312 -16 290 -15T245 -11T198 -4T154 9Q99 30 99 82V238H38Q31 249 26 266T20 304Q20 341 36 357T80 374H99V549Q99 570 110 581T142 600Q185 614
233 618T319 623Q397 623 460 604T569 546T640 446T665 304ZM485 301Q485 391 443 436T331 482Q317 482 303 481T273 478V374H368Q375 363 380 346T386 308Q386 271 370 255T326 238H273V130Q284 128 300 127T330 125Q399 125 442 169T485 301Z" />
<glyph unicode="&#xd1;" glyph-name="Ntilde" horiz-adv-x="679" d="M614 21Q600 7 574 0T510 -8Q473 -8 440 3T386 56L287 258Q272 289 260 316T234 380L227 378Q232 315 232 262T233 159V0Q222 -2 200 -5T155 -8Q104 -8 85 9T65 72V575Q79 595 108 605T170 615Q207
615 240 604T294 551L394 349Q409 318 421 291T447 227L451 228Q447 276 447 318T446 400V609Q457 611 479 614T524 617Q575 617 594 600T614 537V21ZM247 843Q268 843 288 839T326 829T360 819T388 814Q410 814 422 827T439 849H443Q475 849 498 827T521 769Q521
724 493 703T423 682Q399 682 379 686T341 696T309 706T282 711Q260 711 249 699T231 676H227Q196 676 173 698T149 756Q149 778 157 794T180 822T211 838T247 843Z" />
<glyph unicode="&#xd2;" glyph-name="Ograve" horiz-adv-x="703" d="M668 304Q668 226 644 166T578 65T477 3T351 -18Q283 -18 225 3T125 65T59 166T35 304Q35 382 59 442T126 542T226 604T351 625Q418 625 475 604T576 543T643 442T668 304ZM488 304Q488 394
451 439T351 484Q290 484 253 440T215 304Q215 213 252 168T352 123Q414 123 451 168T488 304ZM193 739Q192 743 192 750T191 762Q191 799 212 819T264 840Q284 840 301 831T338 803L424 718Q419 683 398 666T353 649Q332 649 317 656T285 675L193 739Z" />
<glyph unicode="&#xd3;" glyph-name="Oacute" horiz-adv-x="703" d="M668 304Q668 226 644 166T578 65T477 3T351 -18Q283 -18 225 3T125 65T59 166T35 304Q35 382 59 442T126 542T226 604T351 625Q418 625 475 604T576 543T643 442T668 304ZM488 304Q488 394
451 439T351 484Q290 484 253 440T215 304Q215 213 252 168T352 123Q414 123 451 168T488 304ZM432 846Q474 846 497 826T521 775Q521 755 512 739T474 706L374 648Q334 648 314 666T293 708Q293 720 296 731T316 756L432 846Z" />
<glyph unicode="&#xd4;" glyph-name="Ocircumflex" horiz-adv-x="703" d="M668 304Q668 226 644 166T578 65T477 3T351 -18Q283 -18 225 3T125 65T59 166T35 304Q35 382 59 442T126 542T226 604T351 625Q418 625 475 604T576 543T643 442T668 304ZM488 304Q488
394 451 439T351 484Q290 484 253 440T215 304Q215 213 252 168T352 123Q414 123 451 168T488 304ZM355 734Q331 711 307 689T261 649Q230 649 209 667T188 712Q188 733 198 748T235 784L264 806Q293 828 315 837T357 847Q383 847 404 838T448 805L529 724Q529
688 511 670T460 652Q440 652 423 665T382 704L355 734Z" />
<glyph unicode="&#xd5;" glyph-name="Otilde" horiz-adv-x="703" d="M668 304Q668 226 644 166T578 65T477 3T351 -18Q283 -18 225 3T125 65T59 166T35 304Q35 382 59 442T126 542T226 604T351 625Q418 625 475 604T576 543T643 442T668 304ZM488 304Q488 394
451 439T351 484Q290 484 253 440T215 304Q215 213 252 168T352 123Q414 123 451 168T488 304ZM265 843Q286 843 306 839T344 829T378 819T406 814Q428 814 440 827T457 849H461Q493 849 516 827T539 769Q539 724 511 703T441 682Q417 682 397 686T359 696T327
706T300 711Q278 711 267 699T249 676H245Q214 676 191 698T167 756Q167 778 175 794T198 822T229 838T265 843Z" />
<glyph unicode="&#xd6;" glyph-name="Odieresis" horiz-adv-x="703" d="M668 304Q668 226 644 166T578 65T477 3T351 -18Q283 -18 225 3T125 65T59 166T35 304Q35 382 59 442T126 542T226 604T351 625Q418 625 475 604T576 543T643 442T668 304ZM488 304Q488 394
451 439T351 484Q290 484 253 440T215 304Q215 213 252 168T352 123Q414 123 451 168T488 304ZM327 748Q327 713 304 690T242 666Q204 666 181 689T158 748Q158 783 181 807T242 831Q280 831 303 807T327 748ZM542 748Q542 713 519 690T458 666Q420 666 397 689T373
748Q373 783 396 807T458 831Q496 831 519 807T542 748Z" />
<glyph unicode="&#xd7;" glyph-name="multiply" horiz-adv-x="504" d="M353 285L476 143Q465 108 442 88T386 67Q375 67 360 73T333 94L250 194L126 60Q106 63 89 71T60 91T40 116T33 143Q33 162 59 191L152 290L28 418Q32 433 40 448T61 474T87 493T116 500Q143
500 162 478L256 376L379 505Q410 495 434 471T458 417Q458 406 452 394T432 367L353 285Z" />
<glyph unicode="&#xd8;" glyph-name="Oslash" horiz-adv-x="703" d="M668 304Q668 226 644 166T578 65T477 3T351 -18Q242 -18 163 37L110 -18Q77 -10 56 7T35 52Q35 69 44 84T77 121L81 125Q59 162 47 206T35 304Q35 382 59 442T126 542T226 604T351 625Q457
625 536 570L590 625Q624 616 644 597T664 555Q664 537 651 520T619 485Q642 448 655 403T668 304ZM493 304Q493 332 488 360L275 145Q307 123 352 123Q414 123 453 168T493 304ZM210 304Q210 287 211 273T215 245L426 463Q394 484 351 484Q290 484 250 439T210
304Z" />
<glyph unicode="&#xd9;" glyph-name="Ugrave" horiz-adv-x="664" d="M332 -18Q269 -18 219 -1T134 47T81 123T62 222V608Q74 610 97 613T143 617Q193 617 215 600T237 534V225Q237 177 263 150T332 123Q374 123 400 150T427 225V608Q439 610 462 613T508 617Q558
617 580 600T602 534V222Q602 168 584 124T530 48T445 -1T332 -18ZM156 739Q155 743 155 750T154 762Q154 799 175 819T227 840Q247 840 264 831T301 803L387 718Q382 683 361 666T316 649Q295 649 280 656T248 675L156 739Z" />
<glyph unicode="&#xda;" glyph-name="Uacute" horiz-adv-x="664" d="M332 -18Q269 -18 219 -1T134 47T81 123T62 222V608Q74 610 97 613T143 617Q193 617 215 600T237 534V225Q237 177 263 150T332 123Q374 123 400 150T427 225V608Q439 610 462 613T508 617Q558
617 580 600T602 534V222Q602 168 584 124T530 48T445 -1T332 -18ZM406 846Q448 846 471 826T495 775Q495 755 486 739T448 706L348 648Q308 648 288 666T267 708Q267 720 270 731T290 756L406 846Z" />
<glyph unicode="&#xdb;" glyph-name="Ucircumflex" horiz-adv-x="664" d="M332 -18Q269 -18 219 -1T134 47T81 123T62 222V608Q74 610 97 613T143 617Q193 617 215 600T237 534V225Q237 177 263 150T332 123Q374 123 400 150T427 225V608Q439 610 462 613T508
617Q558 617 580 600T602 534V222Q602 168 584 124T530 48T445 -1T332 -18ZM337 734Q313 711 289 689T243 649Q212 649 191 667T170 712Q170 733 180 748T217 784L246 806Q275 828 297 837T339 847Q365 847 386 838T430 805L511 724Q511 688 493 670T442 652Q422
652 405 665T364 704L337 734Z" />
<glyph unicode="&#xdc;" glyph-name="Udieresis" horiz-adv-x="664" d="M332 -18Q269 -18 219 -1T134 47T81 123T62 222V608Q74 610 97 613T143 617Q193 617 215 600T237 534V225Q237 177 263 150T332 123Q374 123 400 150T427 225V608Q439 610 462 613T508 617Q558
617 580 600T602 534V222Q602 168 584 124T530 48T445 -1T332 -18ZM306 748Q306 713 283 690T221 666Q183 666 160 689T137 748Q137 783 160 807T221 831Q259 831 282 807T306 748ZM521 748Q521 713 498 690T437 666Q399 666 376 689T352 748Q352 783 375 807T437
831Q475 831 498 807T521 748Z" />
<glyph unicode="&#xdd;" glyph-name="Yacute" horiz-adv-x="574" d="M562 535Q562 523 556 504T530 447T475 349T383 197V1Q372 -2 350 -5T304 -8Q252 -8 232 10T212 73V200Q186 237 156 284T97 381T44 478T5 561Q18 579 40 594T96 609Q135 609 159 593T206 533L294
356H300Q314 387 325 414T348 468T370 525T396 590Q414 599 436 604T478 609Q513 609 537 591T562 535ZM352 846Q394 846 417 826T441 775Q441 755 432 739T394 706L294 648Q254 648 234 666T213 708Q213 720 216 731T236 756L352 846Z" />
<glyph unicode="&#xde;" glyph-name="Thorn" horiz-adv-x="577" d="M60 608Q72 610 95 613T141 617Q191 617 213 600T235 534V523H306Q367 523 413 508T490 464T536 396T552 307Q552 258 537 219T491 151T414 107T306 91H235V1Q224 -2 201 -5T154 -8Q101 -8 81
10T60 75V608ZM234 228H287Q329 228 351 247T374 307Q374 347 352 366T287 386H234V228Z" />
<glyph unicode="&#xdf;" glyph-name="germandbls" horiz-adv-x="624" d="M224 1Q213 -2 193 -5T148 -8Q98 -8 76 8T54 72V454Q54 512 73 554T126 624T204 665T300 679Q355 679 400 664T477 619T528 549T546 458Q546 433 538 418T511 392L477 374Q464 367 457 359T449
340Q449 329 456 322T476 309Q537 279 565 243T594 149Q594 109 580 78T541 26T481 -6T406 -17Q346 -17 310 2T273 59Q273 82 282 98T306 124Q320 116 335 111T371 106Q394 106 407 117T420 147Q420 165 410 176T380 198Q328 226 302 258T275 342Q275 382 300 412T369
459L377 462Q377 496 356 518T301 541Q266 541 245 519T224 454V1Z" />
<glyph unicode="&#xe0;" glyph-name="agrave" horiz-adv-x="544" d="M260 108Q277 108 297 111T328 121V201L256 195Q228 193 210 183T192 153Q192 133 207 121T260 108ZM252 501Q306 501 350 490T426 457T475 400T492 318V94Q492 68 478 52T443 23Q378 -16 260
-16Q207 -16 165 -6T92 24T45 75T28 147Q28 216 69 253T196 299L327 313V320Q327 349 302 361T228 374Q191 374 155 366T89 346Q76 355 67 373T58 412Q58 438 70 453T109 480Q138 491 177 496T252 501ZM113 646Q112 650 112 657T111 669Q111 706 132 726T184 747Q204
747 222 739T258 710L347 599Q342 564 321 547T276 530Q255 530 241 536T211 556L113 646Z" />
<glyph unicode="&#xe1;" glyph-name="aacute" horiz-adv-x="544" d="M260 108Q277 108 297 111T328 121V201L256 195Q228 193 210 183T192 153Q192 133 207 121T260 108ZM252 501Q306 501 350 490T426 457T475 400T492 318V94Q492 68 478 52T443 23Q378 -16 260
-16Q207 -16 165 -6T92 24T45 75T28 147Q28 216 69 253T196 299L327 313V320Q327 349 302 361T228 374Q191 374 155 366T89 346Q76 355 67 373T58 412Q58 438 70 453T109 480Q138 491 177 496T252 501ZM320 752Q372 752 398 730T424 680Q424 657 414 642T380 606L285
528Q240 528 218 549T196 594Q196 606 200 617T219 643L320 752Z" />
<glyph unicode="&#xe2;" glyph-name="acircumflex" horiz-adv-x="544" d="M260 108Q277 108 297 111T328 121V201L256 195Q228 193 210 183T192 153Q192 133 207 121T260 108ZM252 501Q306 501 350 490T426 457T475 400T492 318V94Q492 68 478 52T443 23Q378 -16
260 -16Q207 -16 165 -6T92 24T45 75T28 147Q28 216 69 253T196 299L327 313V320Q327 349 302 361T228 374Q191 374 155 366T89 346Q76 355 67 373T58 412Q58 438 70 453T109 480Q138 491 177 496T252 501ZM270 626Q257 611 247 600T227 579T209 558T189 534Q150
534 127 551T104 598Q104 618 115 632T148 669L182 703Q201 722 222 733T273 745Q299 745 321 735T372 690L443 603Q443 575 427 556T376 536Q356 536 341 546T310 577L270 626Z" />
<glyph unicode="&#xe3;" glyph-name="atilde" horiz-adv-x="544" d="M260 108Q277 108 297 111T328 121V201L256 195Q228 193 210 183T192 153Q192 133 207 121T260 108ZM252 501Q306 501 350 490T426 457T475 400T492 318V94Q492 68 478 52T443 23Q378 -16 260
-16Q207 -16 165 -6T92 24T45 75T28 147Q28 216 69 253T196 299L327 313V320Q327 349 302 361T228 374Q191 374 155 366T89 346Q76 355 67 373T58 412Q58 438 70 453T109 480Q138 491 177 496T252 501ZM183 715Q204 715 224 711T262 701T296 691T324 686Q346 686
358 699T375 721H379Q411 721 434 699T457 641Q457 596 429 575T359 554Q335 554 315 558T277 568T245 578T218 583Q196 583 185 571T167 548H163Q131 548 108 570T85 628Q85 650 93 666T116 694T147 710T183 715Z" />
<glyph unicode="&#xe4;" glyph-name="adieresis" horiz-adv-x="544" d="M260 108Q277 108 297 111T328 121V201L256 195Q228 193 210 183T192 153Q192 133 207 121T260 108ZM252 501Q306 501 350 490T426 457T475 400T492 318V94Q492 68 478 52T443 23Q378 -16
260 -16Q207 -16 165 -6T92 24T45 75T28 147Q28 216 69 253T196 299L327 313V320Q327 349 302 361T228 374Q191 374 155 366T89 346Q76 355 67 373T58 412Q58 438 70 453T109 480Q138 491 177 496T252 501ZM252 630Q252 595 229 572T167 548Q129 548 106 571T83
630Q83 665 106 689T167 713Q205 713 228 689T252 630ZM467 630Q467 595 444 572T383 548Q345 548 322 571T298 630Q298 665 321 689T383 713Q421 713 444 689T467 630Z" />
<glyph unicode="&#xe5;" glyph-name="aring" horiz-adv-x="544" d="M260 108Q277 108 297 111T328 121V201L256 195Q228 193 210 183T192 153Q192 133 207 121T260 108ZM252 501Q306 501 350 490T426 457T475 400T492 318V94Q492 68 478 52T443 23Q378 -16 260
-16Q207 -16 165 -6T92 24T45 75T28 147Q28 216 69 253T196 299L327 313V320Q327 349 302 361T228 374Q191 374 155 366T89 346Q76 355 67 373T58 412Q58 438 70 453T109 480Q138 491 177 496T252 501ZM136 641Q136 688 171 720T268 753Q333 753 369 721T405 641Q405
594 369 562T268 530Q207 530 172 562T136 641ZM237 641Q237 625 246 616T269 607Q284 607 293 616T303 641Q303 657 294 666T269 675Q256 675 247 666T237 641Z" />
<glyph unicode="&#xe6;" glyph-name="ae" horiz-adv-x="831" d="M252 501Q359 501 412 448Q444 475 483 488T564 501Q617 501 660 485T735 441T784 374T801 289Q801 255 782 237T729 214L480 177Q494 140 527 126T601 111Q643 111 681 121T742 146Q758 136 769
118T780 80Q780 55 766 37T727 7T666 -10T589 -16Q493 -16 430 30L422 25Q390 6 353 -5T257 -16Q152 -16 90 24T28 147Q28 216 69 253T196 299L327 313V320Q327 349 302 361T228 374Q191 374 155 366T89 346Q76 355 67 373T58 412Q58 438 70 453T109 480Q138 491
177 496T252 501ZM260 108Q277 108 297 111T328 121V201L256 195Q228 193 210 183T192 153Q192 133 207 121T260 108ZM565 377Q527 377 502 354T471 289L641 317Q640 327 635 337T621 357T598 371T565 377Z" />
<glyph unicode="&#xe7;" glyph-name="ccedilla" horiz-adv-x="489" d="M326 367Q301 367 279 359T240 335T213 296T203 241Q203 179 238 149T325 119Q355 119 378 126T418 142Q437 128 446 112T456 73Q456 42 433 20T364 -10Q374 -27 378 -45T382 -84Q382 -135
350 -168T261 -202Q219 -202 194 -182T168 -123Q168 -106 172 -93H182Q213 -93 226 -78T240 -41Q240 -27 232 -9Q138 8 85 71T31 241Q31 307 52 356T111 437T196 485T299 501Q371 501 410 475T449 408Q449 389 440 373T419 344Q402 352 378 359T326 367Z" />
<glyph unicode="&#xe8;" glyph-name="egrave" horiz-adv-x="549" d="M198 176Q212 140 245 126T319 111Q361 111 399 121T460 146Q476 136 487 118T498 80Q498 55 484 37T445 7T384 -10T307 -16Q248 -16 198 0T110 50T52 133T31 250Q31 316 52 363T109 441T190
486T282 501Q335 501 378 485T453 441T502 374T519 289Q519 255 500 237T447 214L198 176ZM283 377Q245 377 220 354T189 289L359 317Q358 327 353 337T339 357T316 371T283 377ZM115 646Q114 650 114 657T113 669Q113 706 134 726T186 747Q206 747 224 739T260
710L349 599Q344 564 323 547T278 530Q257 530 243 536T213 556L115 646Z" />
<glyph unicode="&#xe9;" glyph-name="eacute" horiz-adv-x="549" d="M198 176Q212 140 245 126T319 111Q361 111 399 121T460 146Q476 136 487 118T498 80Q498 55 484 37T445 7T384 -10T307 -16Q248 -16 198 0T110 50T52 133T31 250Q31 316 52 363T109 441T190
486T282 501Q335 501 378 485T453 441T502 374T519 289Q519 255 500 237T447 214L198 176ZM283 377Q245 377 220 354T189 289L359 317Q358 327 353 337T339 357T316 371T283 377ZM331 752Q383 752 409 730T435 680Q435 657 425 642T391 606L296 528Q251 528 229
549T207 594Q207 606 211 617T230 643L331 752Z" />
<glyph unicode="&#xea;" glyph-name="ecircumflex" horiz-adv-x="549" d="M198 176Q212 140 245 126T319 111Q361 111 399 121T460 146Q476 136 487 118T498 80Q498 55 484 37T445 7T384 -10T307 -16Q248 -16 198 0T110 50T52 133T31 250Q31 316 52 363T109 441T190
486T282 501Q335 501 378 485T453 441T502 374T519 289Q519 255 500 237T447 214L198 176ZM283 377Q245 377 220 354T189 289L359 317Q358 327 353 337T339 357T316 371T283 377ZM283 626Q270 611 260 600T240 579T222 558T202 534Q163 534 140 551T117 598Q117
618 128 632T161 669L195 703Q214 722 235 733T286 745Q312 745 334 735T385 690L456 603Q456 575 440 556T389 536Q369 536 354 546T323 577L283 626Z" />
<glyph unicode="&#xeb;" glyph-name="edieresis" horiz-adv-x="549" d="M198 176Q212 140 245 126T319 111Q361 111 399 121T460 146Q476 136 487 118T498 80Q498 55 484 37T445 7T384 -10T307 -16Q248 -16 198 0T110 50T52 133T31 250Q31 316 52 363T109 441T190
486T282 501Q335 501 378 485T453 441T502 374T519 289Q519 255 500 237T447 214L198 176ZM283 377Q245 377 220 354T189 289L359 317Q358 327 353 337T339 357T316 371T283 377ZM249 630Q249 595 226 572T164 548Q126 548 103 571T80 630Q80 665 103 689T164 713Q202
713 225 689T249 630ZM464 630Q464 595 441 572T380 548Q342 548 319 571T295 630Q295 665 318 689T380 713Q418 713 441 689T464 630Z" />
<glyph unicode="&#xec;" glyph-name="igrave" horiz-adv-x="282" d="M150 -8Q100 -8 78 8T56 72V479Q67 482 87 485T132 488Q182 488 204 472T226 408V1Q215 -2 195 -5T150 -8ZM-22 646Q-23 650 -23 657T-24 669Q-24 706 -3 726T49 747Q69 747 87 739T123 710L212
599Q207 564 186 547T141 530Q120 530 106 536T76 556L-22 646Z" />
<glyph unicode="&#xed;" glyph-name="iacute" horiz-adv-x="282" d="M150 -8Q100 -8 78 8T56 72V479Q67 482 87 485T132 488Q182 488 204 472T226 408V1Q215 -2 195 -5T150 -8ZM194 752Q246 752 272 730T298 680Q298 657 288 642T254 606L159 528Q114 528 92 549T70
594Q70 606 74 617T93 643L194 752Z" />
<glyph unicode="&#xee;" glyph-name="icircumflex" horiz-adv-x="282" d="M150 -8Q100 -8 78 8T56 72V479Q67 482 87 485T132 488Q182 488 204 472T226 408V1Q215 -2 195 -5T150 -8ZM140 626Q127 611 117 600T97 579T79 558T59 534Q20 534 -3 551T-26 598Q-26
618 -15 632T18 669L52 703Q71 722 92 733T143 745Q169 745 191 735T242 690L313 603Q313 575 297 556T246 536Q226 536 211 546T180 577L140 626Z" />
<glyph unicode="&#xef;" glyph-name="idieresis" horiz-adv-x="282" d="M150 -8Q100 -8 78 8T56 72V479Q67 482 87 485T132 488Q182 488 204 472T226 408V1Q215 -2 195 -5T150 -8ZM117 630Q117 595 94 572T32 548Q-6 548 -29 571T-52 630Q-52 665 -29 689T32 713Q70
713 93 689T117 630ZM332 630Q332 595 309 572T248 548Q210 548 187 571T163 630Q163 665 186 689T248 713Q286 713 309 689T332 630Z" />
<glyph unicode="&#xf0;" glyph-name="eth" horiz-adv-x="585" d="M428 578Q483 515 518 434T553 260Q553 200 538 150T492 63T411 5T293 -16Q232 -16 184 1T101 49T49 125T31 226Q31 284 51 327T104 399T179 442T265 457Q287 457 306 454T343 444Q331 465 318
483T284 519L132 462Q118 473 107 491T95 530Q95 562 128 576L172 595Q155 602 138 608T100 621Q103 668 126 689T183 711Q220 711 258 698T333 661L447 707Q461 697 473 678T485 639Q485 616 475 605T449 587L428 578ZM378 228Q378 248 376 266T369 302Q339 330
298 330Q253 330 229 301T205 226Q205 175 227 147T294 118Q337 118 357 147T378 228Z" />
<glyph unicode="&#xf1;" glyph-name="ntilde" horiz-adv-x="583" d="M530 1Q519 -2 499 -5T454 -8Q404 -8 382 8T360 72V308Q360 339 342 353T293 368Q273 368 256 363T222 350V1Q211 -2 191 -5T146 -8Q96 -8 74 8T52 72V373Q52 400 63 417T95 448Q129 472 180
486T295 501Q408 501 469 452T530 313V1ZM205 715Q226 715 246 711T284 701T318 691T346 686Q368 686 380 699T397 721H401Q433 721 456 699T479 641Q479 596 451 575T381 554Q357 554 337 558T299 568T267 578T240 583Q218 583 207 571T189 548H185Q154 548 131
570T107 628Q107 650 115 666T138 694T169 710T205 715Z" />
<glyph unicode="&#xf2;" glyph-name="ograve" horiz-adv-x="586" d="M555 243Q555 183 537 135T484 54T401 2T293 -16Q233 -16 185 1T103 52T50 134T31 243Q31 302 50 350T103 431T186 483T293 501Q352 501 400 483T482 431T536 349T555 243ZM293 368Q251 368
228 336T205 243Q205 180 228 149T293 117Q335 117 358 149T381 243Q381 303 358 335T293 368ZM160 646Q159 650 159 657T158 669Q158 706 179 726T231 747Q251 747 269 739T305 710L394 599Q389 564 368 547T323 530Q302 530 288 536T258 556L160 646Z" />
<glyph unicode="&#xf3;" glyph-name="oacute" horiz-adv-x="586" d="M555 243Q555 183 537 135T484 54T401 2T293 -16Q233 -16 185 1T103 52T50 134T31 243Q31 302 50 350T103 431T186 483T293 501Q352 501 400 483T482 431T536 349T555 243ZM293 368Q251 368
228 336T205 243Q205 180 228 149T293 117Q335 117 358 149T381 243Q381 303 358 335T293 368ZM316 752Q368 752 394 730T420 680Q420 657 410 642T376 606L281 528Q236 528 214 549T192 594Q192 606 196 617T215 643L316 752Z" />
<glyph unicode="&#xf4;" glyph-name="ocircumflex" horiz-adv-x="586" d="M555 243Q555 183 537 135T484 54T401 2T293 -16Q233 -16 185 1T103 52T50 134T31 243Q31 302 50 350T103 431T186 483T293 501Q352 501 400 483T482 431T536 349T555 243ZM293 368Q251
368 228 336T205 243Q205 180 228 149T293 117Q335 117 358 149T381 243Q381 303 358 335T293 368ZM290 626Q277 611 267 600T247 579T229 558T209 534Q170 534 147 551T124 598Q124 618 135 632T168 669L202 703Q221 722 242 733T293 745Q319 745 341 735T392
690L463 603Q463 575 447 556T396 536Q376 536 361 546T330 577L290 626Z" />
<glyph unicode="&#xf5;" glyph-name="otilde" horiz-adv-x="586" d="M555 243Q555 183 537 135T484 54T401 2T293 -16Q233 -16 185 1T103 52T50 134T31 243Q31 302 50 350T103 431T186 483T293 501Q352 501 400 483T482 431T536 349T555 243ZM293 368Q251 368
228 336T205 243Q205 180 228 149T293 117Q335 117 358 149T381 243Q381 303 358 335T293 368ZM207 715Q228 715 248 711T286 701T320 691T348 686Q370 686 382 699T399 721H403Q435 721 458 699T481 641Q481 596 453 575T383 554Q359 554 339 558T301 568T269
578T242 583Q220 583 209 571T191 548H187Q156 548 133 570T109 628Q109 650 117 666T140 694T171 710T207 715Z" />
<glyph unicode="&#xf6;" glyph-name="odieresis" horiz-adv-x="586" d="M555 243Q555 183 537 135T484 54T401 2T293 -16Q233 -16 185 1T103 52T50 134T31 243Q31 302 50 350T103 431T186 483T293 501Q352 501 400 483T482 431T536 349T555 243ZM293 368Q251 368
228 336T205 243Q205 180 228 149T293 117Q335 117 358 149T381 243Q381 303 358 335T293 368ZM269 630Q269 595 246 572T184 548Q146 548 123 571T100 630Q100 665 123 689T184 713Q222 713 245 689T269 630ZM484 630Q484 595 461 572T400 548Q362 548 339 571T315
630Q315 665 338 689T400 713Q438 713 461 689T484 630Z" />
<glyph unicode="&#xf7;" glyph-name="divide" horiz-adv-x="525" d="M47 222Q40 233 35 249T30 286Q30 323 47 339T91 356H478Q484 345 489 327T495 289Q495 252 478 237T434 222H47ZM186 120Q186 154 207 177T265 200Q301 200 322 177T343 120Q343 86 322 64T265
41Q229 41 208 63T186 120ZM186 458Q186 492 207 515T265 538Q301 538 322 515T343 458Q343 424 322 402T265 379Q229 379 208 401T186 458Z" />
<glyph unicode="&#xf8;" glyph-name="oslash" horiz-adv-x="586" d="M555 243Q555 183 537 135T484 54T401 2T293 -16Q232 -16 184 2L141 -61Q131 -61 120 -57T98 -46T82 -31T75 -13Q75 -2 83 9L109 46Q71 80 51 129T31 243Q31 302 50 350T103 431T186 483T293
501Q352 501 403 481L447 547Q456 547 467 544T489 534T506 518T513 499Q513 489 506 478L477 436Q514 402 534 353T555 243ZM393 243Q393 275 383 303L261 120Q278 115 293 115Q335 115 364 146T393 243ZM293 370Q251 370 222 339T193 243Q193 208 202 183L325
364Q310 370 293 370Z" />
<glyph unicode="&#xf9;" glyph-name="ugrave" horiz-adv-x="582" d="M52 484Q63 487 83 490T128 493Q178 493 200 477T222 413V193Q222 152 242 135T300 117Q323 117 337 121T360 129V484Q371 487 391 490T436 493Q486 493 508 477T530 413V104Q530 54 488 29Q453
7 405 -4T299 -16Q245 -16 200 -4T121 33T70 97T52 193V484ZM117 646Q116 650 116 657T115 669Q115 706 136 726T188 747Q208 747 226 739T262 710L351 599Q346 564 325 547T280 530Q259 530 245 536T215 556L117 646Z" />
<glyph unicode="&#xfa;" glyph-name="uacute" horiz-adv-x="582" d="M52 484Q63 487 83 490T128 493Q178 493 200 477T222 413V193Q222 152 242 135T300 117Q323 117 337 121T360 129V484Q371 487 391 490T436 493Q486 493 508 477T530 413V104Q530 54 488 29Q453
7 405 -4T299 -16Q245 -16 200 -4T121 33T70 97T52 193V484ZM355 752Q407 752 433 730T459 680Q459 657 449 642T415 606L320 528Q275 528 253 549T231 594Q231 606 235 617T254 643L355 752Z" />
<glyph unicode="&#xfb;" glyph-name="ucircumflex" horiz-adv-x="582" d="M52 484Q63 487 83 490T128 493Q178 493 200 477T222 413V193Q222 152 242 135T300 117Q323 117 337 121T360 129V484Q371 487 391 490T436 493Q486 493 508 477T530 413V104Q530 54 488
29Q453 7 405 -4T299 -16Q245 -16 200 -4T121 33T70 97T52 193V484ZM288 626Q275 611 265 600T245 579T227 558T207 534Q168 534 145 551T122 598Q122 618 133 632T166 669L200 703Q219 722 240 733T291 745Q317 745 339 735T390 690L461 603Q461 575 445 556T394
536Q374 536 359 546T328 577L288 626Z" />
<glyph unicode="&#xfc;" glyph-name="udieresis" horiz-adv-x="582" d="M52 484Q63 487 83 490T128 493Q178 493 200 477T222 413V193Q222 152 242 135T300 117Q323 117 337 121T360 129V484Q371 487 391 490T436 493Q486 493 508 477T530 413V104Q530 54 488
29Q453 7 405 -4T299 -16Q245 -16 200 -4T121 33T70 97T52 193V484ZM265 630Q265 595 242 572T180 548Q142 548 119 571T96 630Q96 665 119 689T180 713Q218 713 241 689T265 630ZM480 630Q480 595 457 572T396 548Q358 548 335 571T311 630Q311 665 334 689T396
713Q434 713 457 689T480 630Z" />
<glyph unicode="&#xfd;" glyph-name="yacute" horiz-adv-x="551" d="M128 124Q117 149 105 180T79 251T51 342T20 461Q34 475 57 485T109 496Q144 496 167 482T201 427Q221 357 240 289T280 152H284Q296 186 307 226T330 308T350 393T367 477Q384 486 402 491T440
496Q475 496 501 481T527 429Q527 389 515 334T482 219T437 102T387 2Q330 -96 283 -142T186 -189Q146 -189 119 -164T87 -99Q119 -72 151 -38T207 31Q190 36 171 54T128 124ZM306 752Q358 752 384 730T410 680Q410 657 400 642T366 606L271 528Q226 528 204 549T182
594Q182 606 186 617T205 643L306 752Z" />
<glyph unicode="&#xfe;" glyph-name="thorn" horiz-adv-x="587" d="M305 -15Q281 -15 261 -12T224 -2V-167Q213 -170 193 -173T148 -176Q98 -176 76 -160T54 -96V652Q65 655 85 658T130 661Q180 661 202 645T224 581V487Q242 492 264 496T312 501Q362 501 406
486T484 440T536 361T556 246Q556 182 537 134T484 52T405 2T305 -15ZM279 119Q329 119 355 151T382 246Q382 310 356 339T285 368Q272 368 257 365T224 354V132Q250 119 279 119Z" />
<glyph unicode="&#xff;" glyph-name="ydieresis" horiz-adv-x="551" d="M128 124Q117 149 105 180T79 251T51 342T20 461Q34 475 57 485T109 496Q144 496 167 482T201 427Q221 357 240 289T280 152H284Q296 186 307 226T330 308T350 393T367 477Q384 486 402 491T440
496Q475 496 501 481T527 429Q527 389 515 334T482 219T437 102T387 2Q330 -96 283 -142T186 -189Q146 -189 119 -164T87 -99Q119 -72 151 -38T207 31Q190 36 171 54T128 124ZM248 630Q248 595 225 572T163 548Q125 548 102 571T79 630Q79 665 102 689T163 713Q201
713 224 689T248 630ZM463 630Q463 595 440 572T379 548Q341 548 318 571T294 630Q294 665 317 689T379 713Q417 713 440 689T463 630Z" />
<glyph unicode="&#x2013;" glyph-name="endash" horiz-adv-x="541" d="M39 186Q32 197 26 215T20 253Q20 290 37 306T81 323H502Q508 312 514 294T521 256Q521 219 504 203T460 186H39Z" />
<glyph unicode="&#x2014;" glyph-name="emdash" horiz-adv-x="776" d="M49 186Q42 197 36 215T30 253Q30 290 47 306T91 323H727Q733 312 739 294T746 256Q746 219 729 203T685 186H49Z" />
<glyph unicode="&#x2018;" glyph-name="quoteleft" horiz-adv-x="224" d="M72 603Q83 620 98 628T136 636Q155 636 171 632T202 621Q197 561 192 496T185 379Q171 371 149 364T105 357Q89 357 74 360T46 370T27 390T20 421Q20 440 24 465T35 516T52 565T72 603Z" />
<glyph unicode="&#x2019;" glyph-name="quoteright" horiz-adv-x="222" d="M152 390Q141 373 126 365T88 357Q69 357 53 361T22 372Q27 432 32 497T39 614Q53 622 75 629T119 636Q135 636 150 633T178 623T197 603T204 572Q204 552 200 527T189 477T172 428T152 390Z" />
<glyph unicode="&#x201a;" glyph-name="quotesinglbase" horiz-adv-x="228" d="M152 -93Q141 -110 126 -118T88 -126Q69 -126 53 -122T22 -111Q27 -51 32 14T39 131Q53 139 75 146T119 153Q135 153 150 150T178 140T197 120T204 89Q204 69 200 44T189 -6T172 -55T152
-93Z" />
<glyph unicode="&#x201c;" glyph-name="quotedblleft" horiz-adv-x="418" d="M275 603Q286 620 299 628T335 636Q354 636 367 633T396 623Q394 593 391 561T386 496T381 434T378 377Q364 369 344 363T303 357Q269 357 246 370T223 421Q223 440 227 465T238 516T255
565T275 603ZM71 603Q82 620 95 628T131 636Q150 636 163 633T192 623Q190 593 187 561T182 496T177 434T174 377Q160 369 140 363T99 357Q65 357 42 370T19 421Q19 440 23 465T34 516T51 565T71 603Z" />
<glyph unicode="&#x201d;" glyph-name="quotedblright" horiz-adv-x="418" d="M143 390Q132 373 119 365T83 357Q64 357 51 360T22 370Q24 400 26 432T31 497T36 559T39 616Q53 624 73 630T114 636Q148 636 171 623T194 572Q194 552 190 527T179 477T163 428T143
390ZM347 390Q336 373 323 365T287 357Q268 357 255 360T226 370Q228 400 230 432T235 497T240 559T243 616Q257 624 277 630T318 636Q352 636 375 623T398 572Q398 552 394 527T383 477T367 428T347 390Z" />
<glyph unicode="&#x201e;" glyph-name="quotedblbase" horiz-adv-x="422" d="M143 -93Q132 -110 119 -118T83 -126Q64 -126 51 -123T22 -113Q24 -83 26 -51T31 14T36 76T39 133Q53 141 73 147T114 153Q148 153 171 140T194 89Q194 69 190 44T179 -6T163 -55T143
-93ZM347 -93Q336 -110 323 -118T287 -126Q268 -126 255 -123T226 -113Q228 -83 230 -51T235 14T240 76T243 133Q257 141 277 147T318 153Q352 153 375 140T398 89Q398 69 394 44T383 -6T367 -55T347 -93Z" />
<glyph unicode="&#x2022;" glyph-name="bullet" horiz-adv-x="313" d="M35 282Q35 334 67 369T156 405Q213 405 245 370T278 282Q278 230 246 195T156 160Q100 160 68 195T35 282Z" />
<glyph unicode="&#x2039;" glyph-name="guilsinglleft" horiz-adv-x="325" d="M293 94Q293 65 274 42T215 19Q193 19 176 30T141 60L44 158Q38 168 34 184T29 217Q29 249 37 268T57 299L204 441Q242 430 261 410T281 365Q281 354 280 345T273 326T259 306T235
282L169 221L293 94Z" />
<glyph unicode="&#x203a;" glyph-name="guilsinglright" horiz-adv-x="325" d="M32 366Q32 395 51 418T110 441Q132 441 149 430T184 400L281 302Q287 292 291 276T296 243Q296 211 288 192T268 161L121 19Q83 30 64 50T44 95Q44 117 52 134T90 178L156 239L32 366Z" />
</font>
</defs>
</svg>
