<?xml version="1.0" standalone="no"?>
<!DOCTYPE svg PUBLIC "-//W3C//DTD SVG 1.1//EN" "http://www.w3.org/Graphics/SVG/1.1/DTD/svg11.dtd">
<svg xmlns="http://www.w3.org/2000/svg">
<defs >
<font id="PTSans" horiz-adv-x="515" ><font-face
    font-family="PT Sans"
    units-per-em="1000"
    panose-1="2 11 7 3 2 2 3 9 2 4"
    ascent="1018"
    descent="-276"
    alphabetic="0" />
<glyph unicode=" " glyph-name="space" horiz-adv-x="253" />
<glyph unicode="!" glyph-name="exclam" horiz-adv-x="283" d="M217 700H345L275 371L216 208H138L147 371L217 700ZM74 66Q74 101 96 121T154 142Q191 142 213 122T235 66Q235 31 213 10T154 -11Q118 -11 96 10T74 66Z" />
<glyph unicode="&quot;" glyph-name="quotedbl" horiz-adv-x="354" d="M372 700H480L401 484H326L372 700ZM256 700H364L285 484H210L256 700Z" />
<glyph unicode="#" glyph-name="numbersign" horiz-adv-x="545" d="M318 205H229L193 51H86L122 205H48L70 302H145L170 408H98L120 505H193L228 649H335L300 505H389L424 649H531L496 505H568L543 408H473L448 302H517L493 205H425L389 51H282L318 205ZM252 302H341L366
408H277L252 302Z" />
<glyph unicode="$" glyph-name="dollar" horiz-adv-x="545" d="M192 -10Q140 -3 108 13T59 43L106 140Q120 130 148 117T215 97L262 318Q239 333 217 350T178 390T150 441T139 508Q139 556 155 592T200 653T266 692T345 711L365 800H464L445 710Q483 705 512 696T562
675L512 573Q498 581 474 589T421 602L378 399Q401 383 424 365T465 324T494 271T505 203Q505 155 489 118T445 53T377 10T290 -11L272 -100H173L192 -10ZM272 94Q325 98 350 125T375 188Q375 220 357 242T312 284L272 94ZM364 606Q316 604 293 581T269 524Q269
495 285 475T328 434L364 606Z" />
<glyph unicode="%" glyph-name="percent" horiz-adv-x="804" d="M311 499Q311 553 329 593T378 659T444 699T517 712Q583 712 617 682T652 592Q652 535 635 494T589 425T523 385T445 372Q383 372 347 406T311 499ZM421 505Q420 483 431 470T463 456Q496 456 519
490T542 579Q542 628 499 628Q482 628 468 618T443 592T426 553T421 505ZM420 128Q420 182 438 222T487 288T553 328T626 341Q692 341 726 311T761 221Q761 164 744 123T698 54T632 14T554 1Q492 1 456 35T420 128ZM530 134Q529 112 540 99T572 85Q605 85 628 119T651
208Q651 257 608 257Q591 257 577 247T552 221T535 182T530 134ZM656 714L729 648L153 -14L80 55L656 714Z" />
<glyph unicode="&amp;" glyph-name="ampersand" horiz-adv-x="783" d="M73 162Q73 208 91 249T140 324T209 385T289 433Q272 466 268 493T263 547Q263 580 274 610T309 663T370 700T458 714Q498 714 523 704T564 678T584 641T590 600Q590 549 550 503T434 415Q456
361 479 316T535 227Q561 252 587 289T635 366L714 316Q704 298 689 277T658 233T625 192T595 158Q619 129 647 104T704 66L617 -30Q602 -24 586 -13T555 12T525 41T501 70Q458 37 402 12T270 -14Q224 -14 188 -1T126 36T87 92T73 162ZM443 149Q406 202 377 254T329
354Q270 314 237 274T203 186Q203 144 230 120T310 96Q348 96 384 112T443 149ZM384 553Q384 531 387 516T402 476Q444 501 467 525T490 576Q490 595 481 606T447 617Q416 617 400 598T384 553Z" />
<glyph unicode="&apos;" glyph-name="quotesingle" horiz-adv-x="218" d="M137 700H245L166 484H91L137 700Z" />
<glyph unicode="(" glyph-name="parenleft" horiz-adv-x="310" d="M157 -218Q128 -180 110 -141T81 -62T66 14T62 87Q62 183 85 273T146 444T236 593T343 712L407 658Q360 606 320 542T249 404T202 253T184 94Q184 31 193 -30T234 -164L157 -218Z" />
<glyph unicode=")" glyph-name="parenright" horiz-adv-x="310" d="M183 711Q228 651 248 576T269 409Q269 313 247 222T186 50T97 -100T-10 -220L-77 -165Q-32 -115 9 -50T80 90T129 242T147 395Q147 478 135 541T96 655L183 711Z" />
<glyph unicode="*" glyph-name="asterisk" horiz-adv-x="356" d="M182 731L210 685L225 626L240 681L268 730L331 695L301 643L254 600L318 616H375V543H321L260 559L310 512L335 470L271 433L244 479L224 543L211 485L182 436L117 473L147 522L192 559L137 543H78V617H137L196
600L146 644L118 694L182 731Z" />
<glyph unicode="+" glyph-name="plus" horiz-adv-x="505" d="M58 394H220V563H337V394H500V282H337V111H220V282H58V394Z" />
<glyph unicode="," glyph-name="comma" horiz-adv-x="226" d="M60 -5Q43 -4 28 12T13 54Q13 94 38 116T99 138Q134 138 151 116T168 64V62Q167 13 148 -23T103 -85T48 -126T0 -148L-26 -94Q3 -83 27 -58T60 -5Z" />
<glyph unicode="-" glyph-name="hyphen" horiz-adv-x="343" d="M81 340H320L295 236H56L81 340Z" />
<glyph unicode="." glyph-name="period" horiz-adv-x="251" d="M33 66Q33 101 55 121T113 142Q150 142 172 122T194 66Q194 31 172 10T113 -11Q77 -11 55 10T33 66Z" />
<glyph unicode="/" glyph-name="slash" horiz-adv-x="388" d="M432 712L518 666L8 -142L-77 -94L432 712Z" />
<glyph unicode="0" glyph-name="zero" horiz-adv-x="545" d="M55 229Q55 333 78 421T144 575T243 677T369 714Q408 714 442 702T503 662T544 587T559 471Q559 378 538 291T476 136T377 27T245 -14Q196 -14 160 5T101 56T67 133T55 229ZM179 230Q179 189 186 163T204
122T232 102T266 96Q301 96 331 129T385 215T421 334T435 469Q435 500 432 525T419 567T393 594T352 604Q319 604 288 573T233 491T194 371T179 230Z" />
<glyph unicode="1" glyph-name="one" horiz-adv-x="545" d="M81 110H213L298 505L326 573L268 514L171 452L132 529L389 712H459L331 110H460L437 0H58L81 110Z" />
<glyph unicode="2" glyph-name="two" horiz-adv-x="545" d="M540 560Q540 504 514 447T448 334T360 230T269 142L210 101V96L280 110H459L436 0H36L50 67Q78 93 116 128T195 204T275 288T346 374T396 455T416 526Q416 559 399 580T334 601Q303 601 271 587T206
549L176 643Q224 678 272 696T385 714Q459 714 499 672T540 560Z" />
<glyph unicode="3" glyph-name="three" horiz-adv-x="545" d="M193 389L340 554L404 599L328 590H169L193 700H556L541 629L370 439L322 412V407L362 413Q382 411 404 401T446 372T477 322T490 247Q490 190 472 142T416 60T324 6T197 -14Q154 -14 110 -6T41 17L98
128Q118 115 147 107T214 99Q253 99 281 110T329 139T357 180T366 228Q366 276 341 298T248 320H178L193 389Z" />
<glyph unicode="4" glyph-name="four" horiz-adv-x="545" d="M535 195H430L389 0H274L315 195H28L43 269L436 705H538L452 298H557L535 195ZM370 452L396 536H393L345 464L219 329L164 291L226 298H337L370 452Z" />
<glyph unicode="5" glyph-name="five" horiz-adv-x="545" d="M201 99Q243 99 273 111T322 143T351 189T361 244Q361 294 331 315T229 336L152 333L229 700H556L531 578H311L282 440L319 444Q359 444 389 431T441 395T473 340T484 271Q484 133 406 60T182 -14Q162
-14 141 -12T101 -5T65 4T36 16L92 122Q112 112 137 106T201 99Z" />
<glyph unicode="6" glyph-name="six" horiz-adv-x="545" d="M516 255Q516 201 500 152T452 67T370 8T256 -14Q224 -14 190 -3T127 35T80 105T62 211Q62 313 100 401T200 556T343 664T508 714L515 611Q465 603 417 583T328 531T254 459T205 373Q232 402 271 417T353
432Q430 432 473 384T516 255ZM394 232Q394 272 374 297T305 322Q267 322 234 305T184 262Q182 252 181 240T179 219Q179 165 201 131T271 96Q328 96 361 134T394 232Z" />
<glyph unicode="7" glyph-name="seven" horiz-adv-x="545" d="M62 0L391 539L442 588L384 578H149L174 700H604L596 662L191 0H62Z" />
<glyph unicode="8" glyph-name="eight" horiz-adv-x="545" d="M54 153Q54 191 67 223T102 282T153 329T214 361Q200 374 188 387T166 418T151 457T145 510Q145 559 163 597T214 661T288 700T377 714Q461 714 505 671T549 559Q549 524 538 496T507 443T462 400T408
365Q453 330 472 291T492 205Q492 154 474 114T422 45T343 1T242 -14Q203 -14 169 -3T109 29T69 81T54 153ZM374 190Q374 213 367 231T347 263T317 290T282 314Q231 288 201 254T171 177Q171 142 192 119T261 96Q283 96 303 102T340 119T365 148T374 190ZM263 511Q263
476 285 452T341 407Q359 420 375 435T403 466T423 499T431 532Q431 568 413 586T362 604Q320 604 292 580T263 511Z" />
<glyph unicode="9" glyph-name="nine" horiz-adv-x="545" d="M99 456Q99 516 119 564T174 645T257 696T361 714Q403 714 439 701T501 661T543 592T559 493Q559 413 539 346T484 223T404 125T308 52T207 6T109 -14L103 88Q158 98 206 119T294 170T361 236T406 312Q377
289 343 278T261 266Q233 266 204 276T152 309T114 368T99 456ZM221 475Q221 446 228 427T249 396T277 379T310 374Q348 374 381 386T433 418Q436 429 438 449T441 478Q441 535 419 570T345 606Q321 606 299 599T260 575T232 534T221 475Z" />
<glyph unicode=":" glyph-name="colon" horiz-adv-x="314" d="M90 66Q90 101 112 121T170 142Q207 142 229 122T251 66Q251 31 229 10T170 -11Q134 -11 112 10T90 66ZM165 428Q165 463 187 483T245 504Q282 504 304 484T326 428Q326 393 304 372T245 351Q209 351
187 372T165 428Z" />
<glyph unicode=";" glyph-name="semicolon" horiz-adv-x="307" d="M138 -5Q121 -4 106 12T91 54Q91 94 116 116T177 138Q212 138 229 116T246 64V62Q245 13 226 -23T181 -85T126 -126T78 -148L52 -94Q81 -83 105 -58T138 -5ZM158 428Q158 463 180 483T238 504Q275
504 297 484T319 428Q319 393 297 372T238 351Q202 351 180 372T158 428Z" />
<glyph unicode="&lt;" glyph-name="less" horiz-adv-x="505" d="M51 285V355L437 586L494 496L270 357L179 322L269 291L499 154L442 64L51 285Z" />
<glyph unicode="=" glyph-name="equal" horiz-adv-x="505" d="M58 490H500V378H58V490ZM58 555H500V443H58V555Z" />
<glyph unicode="&gt;" glyph-name="greater" horiz-adv-x="505" d="M508 365V295L121 64L65 155L288 293L379 329L289 359L60 497L116 586L508 365Z" />
<glyph unicode="?" glyph-name="question" horiz-adv-x="430" d="M127 208Q133 262 151 300T194 367T246 417T296 459T334 500T349 549Q349 576 334 591T278 606Q247 606 210 593T145 560L114 654Q155 679 203 696T320 714Q404 714 443 679T482 583Q482 530 466
494T425 430T370 381T313 335T263 281T233 208H127ZM82 66Q82 101 104 121T162 142Q199 142 221 122T243 66Q243 31 221 10T162 -11Q126 -11 104 10T82 66Z" />
<glyph unicode="@" glyph-name="at" horiz-adv-x="1059" d="M706 484H776L727 213Q725 201 724 191T723 172Q723 124 760 124Q786 124 811 136T857 173T889 236T901 326Q901 401 876 454T808 542T705 593T579 609Q501 609 434 581T317 504T239 387T211 240Q211
162 234 100T303 -6T415 -73T568 -97Q597 -97 634 -90T701 -68L732 -164Q690 -184 648 -192T551 -200Q453 -200 371 -172T228 -89T134 47T100 236Q100 345 139 433T244 583T397 678T581 712Q673 712 752 686T889 610T980 489T1013 326Q1013 262 990 206T928 109T837
44T724 20Q699 20 678 25T641 44T619 78T615 130H611Q596 109 579 89T541 54T495 29T440 20Q415 20 394 30T356 60T331 106T321 166Q321 228 341 286T395 390T474 462T571 490Q606 490 630 480T675 452L706 484ZM643 363Q629 374 615 380T581 387Q551 387 526 370T482
325T453 265T442 199Q442 166 456 145T503 123Q517 123 533 131T564 154T592 187T617 225L643 363Z" />
<glyph unicode="A" glyph-name="A" horiz-adv-x="582" d="M387 155H183L100 0H-38L351 705H447L538 0H407L387 155ZM240 265H382L366 421L367 531H362L322 420L240 265Z" />
<glyph unicode="B" glyph-name="B" horiz-adv-x="568" d="M166 695Q185 698 209 701T260 706T315 709T371 710Q417 710 456 701T524 671T569 620T586 544Q586 511 575 481T544 426T495 386T430 365V360Q449 356 468 346T502 319T526 280T535 229Q535 165 510 120T443
46T345 4T227 -10Q211 -10 186 -10T131 -9T73 -4T20 5L166 695ZM167 109Q171 107 181 106T204 105T230 104T252 103Q277 103 303 109T351 129T387 165T401 219Q401 244 390 260T361 285T320 298T271 302H207L167 109ZM230 406H273Q287 406 306 406T338 409Q356
412 376 419T413 439T441 472T452 522Q452 565 424 581T351 597Q325 597 303 596T269 593L230 406Z" />
<glyph unicode="C" glyph-name="C" horiz-adv-x="537" d="M483 29Q416 -14 319 -14Q253 -14 204 8T123 69T74 160T58 272Q58 390 91 473T178 610T301 689T444 714Q501 714 541 706T605 686L554 570Q534 581 506 586T435 592Q384 592 340 571T264 511T214 416T195
289Q195 204 237 156T351 108Q396 108 425 117T481 141L483 29Z" />
<glyph unicode="D" glyph-name="D" horiz-adv-x="620" d="M168 700Q189 703 214 705T260 708T298 709Q307 709 323 709T360 710Q421 710 471 695T556 647T611 565T631 446Q631 402 624 352T598 250T549 152T470 69T356 11T201 -11Q186 -11 171 -11T150 -10Q130
-9 106 -8T57 -5T20 -1L168 700ZM174 114Q178 113 186 113T205 112T224 111T238 111Q308 111 357 142T436 221T480 324T494 428Q494 508 461 548T349 588Q329 588 307 587T273 584L174 114Z" />
<glyph unicode="E" glyph-name="E" horiz-adv-x="503" d="M168 700H298H562L536 578H272L237 415H478L451 293H212L175 122H444L419 0H150H20L168 700Z" />
<glyph unicode="F" glyph-name="F" horiz-adv-x="489" d="M168 700H298H562L536 578H272L235 405H478L453 283H210L150 0H20L168 700Z" />
<glyph unicode="G" glyph-name="G" horiz-adv-x="585" d="M369 365H579L513 53Q468 18 419 2T312 -14Q257 -14 211 5T130 60T77 149T58 270Q58 385 89 469T175 607T301 688T453 714Q510 714 554 705T622 685L570 570Q549 580 518 586T441 592Q388 592 343 572T265
513T214 417T195 285Q195 202 234 155T339 108Q388 108 425 133L453 266L351 282L369 365Z" />
<glyph unicode="H" glyph-name="H" horiz-adv-x="624" d="M455 293H212L150 0H20L168 700H298L238 415H481L541 700H671L523 0H393L455 293Z" />
<glyph unicode="I" glyph-name="I" horiz-adv-x="278" d="M183 700H312L164 0H35L183 700Z" />
<glyph unicode="J" glyph-name="J" horiz-adv-x="324" d="M239 700H369L260 188Q251 146 237 110T200 46T143 4T59 -12Q31 -12 0 -6T-51 11L-1 123Q22 110 53 110Q74 110 88 118T111 142T127 177T139 223L239 700Z" />
<glyph unicode="K" glyph-name="K" horiz-adv-x="593" d="M260 299H213L150 0H20L168 700H298L232 390L263 401L500 700H656L404 403L344 368L388 329L540 0H395L260 299Z" />
<glyph unicode="L" glyph-name="L" horiz-adv-x="495" d="M441 0H150H20L168 700H298L175 122H466L441 0Z" />
<glyph unicode="M" glyph-name="M" horiz-adv-x="767" d="M613 363L657 501H651L585 388L388 129H347L253 391L235 501H230L220 364L143 0H20L168 700H283L388 380L401 300H406L452 382L688 700H813L665 0H536L613 363Z" />
<glyph unicode="N" glyph-name="N" horiz-adv-x="631" d="M267 366L234 478H229L220 366L143 0H20L170 705H260L432 331L463 222H469L476 331L555 700H678L528 -5H438L267 366Z" />
<glyph unicode="O" glyph-name="O" horiz-adv-x="644" d="M58 262Q58 355 83 437T156 581T269 678T418 714Q472 714 515 698T589 649T637 564T654 443Q654 349 629 266T557 121T446 22T303 -14Q185 -14 122 55T58 262ZM195 266Q195 194 222 151T313 108Q359 108
396 135T461 209T502 316T517 441Q517 520 486 556T401 592Q356 592 319 566T254 496T211 392T195 266Z" />
<glyph unicode="P" glyph-name="P" horiz-adv-x="550" d="M167 693Q209 701 256 705T352 710Q403 710 446 699T522 663T573 602T591 512Q591 434 564 382T493 297T391 251T275 237Q270 237 260 237T238 237T216 239T200 241L150 0H20L167 693ZM226 359Q230 358
237 357T252 356T268 355T280 355Q314 355 345 362T401 386T439 430T454 496Q454 525 445 544T419 573T382 588T336 592Q318 592 302 591T274 587L226 359Z" />
<glyph unicode="Q" glyph-name="Q" horiz-adv-x="644" d="M58 262Q58 355 83 437T156 581T269 678T418 714Q472 714 515 698T589 649T637 564T654 443Q654 349 629 266T557 121T446 22T303 -14Q185 -14 122 55T58 262ZM195 266Q195 194 222 151T313 108Q359 108
396 135T461 209T502 316T517 441Q517 520 486 556T401 592Q356 592 319 566T254 496T211 392T195 266ZM627 -202Q579 -215 532 -215Q484 -215 440 -205T356 -182T278 -160T205 -149Q182 -149 160 -155L185 -37Q213 -31 241 -31Q281 -31 318 -41T394 -62T474 -84T562
-94Q583 -94 605 -92T652 -83L627 -202Z" />
<glyph unicode="R" glyph-name="R" horiz-adv-x="584" d="M167 693Q215 702 264 706T352 710Q398 710 439 699T510 666T557 608T575 524Q575 469 559 429T515 361T454 318T383 297L422 266L519 0H375L279 274L210 287L150 0H20L167 693ZM230 380H283Q312 380 340
385T389 405T424 444T438 505Q438 539 415 563T341 588Q321 588 304 587T274 583L230 380Z" />
<glyph unicode="S" glyph-name="S" horiz-adv-x="510" d="M502 559Q483 571 446 583T364 596Q341 596 319 592T280 577T253 551T243 513Q243 484 261 464T306 427T365 391T424 349T470 292T488 209Q488 150 468 108T410 38T320 -1T203 -14Q168 -14 137 -10T78
0T31 13T-2 28L65 144Q75 138 91 131T127 118T172 108T220 104Q248 104 273 108T316 123T345 150T356 190Q356 217 338 236T293 272T234 307T175 351T129 411T111 498Q111 556 131 597T187 664T269 702T370 714Q399 714 428 711T483 703T531 690T568 673L502 559Z"
/>
<glyph unicode="T" glyph-name="T" horiz-adv-x="547" d="M614 578H420L297 0H168L290 578H96L122 700H639L614 578Z" />
<glyph unicode="U" glyph-name="U" horiz-adv-x="602" d="M531 700H653L558 248Q543 176 519 127T461 46T381 2T275 -12Q217 -12 177 1T112 40T75 99T63 174Q63 194 65 215T73 259L167 700H296L204 260Q196 222 196 198Q196 150 221 130T294 110Q354 110 387 145T437
258L531 700Z" />
<glyph unicode="V" glyph-name="V" horiz-adv-x="579" d="M288 290L281 171H285L329 290L545 700H691L296 -5H202L101 700H243L288 290Z" />
<glyph unicode="W" glyph-name="W" horiz-adv-x="826" d="M249 310L235 186H240L279 312L477 700H565L594 310L581 186H586L626 312L790 700H930L597 -5H506L469 384L477 491H471L433 383L234 -5H143L109 700H246L249 310Z" />
<glyph unicode="X" glyph-name="X" horiz-adv-x="608" d="M256 357L143 700H284L344 498L354 427L391 498L540 700H696L433 362L558 0H419L347 216L335 290L295 216L134 0H-24L256 357Z" />
<glyph unicode="Y" glyph-name="Y" horiz-adv-x="569" d="M231 260L106 700H250L315 437L313 363H317L348 439L523 700H672L361 261L306 0H177L231 260Z" />
<glyph unicode="Z" glyph-name="Z" horiz-adv-x="518" d="M15 122L375 538L433 578H112L137 700H598L573 578L211 159L155 122H476L450 0H-11L15 122Z" />
<glyph unicode="[" glyph-name="bracketleft" horiz-adv-x="314" d="M198 700H421L399 591H294L143 -120H248L224 -230H2L198 700Z" />
<glyph unicode="\" glyph-name="backslash" horiz-adv-x="424" d="M472 -95L371 -140L36 668L139 711L472 -95Z" />
<glyph unicode="]" glyph-name="bracketright" horiz-adv-x="314" d="M145 -230H-78L-54 -120H51L201 591H96L118 700H342L145 -230Z" />
<glyph unicode="^" glyph-name="asciicircum" horiz-adv-x="505" d="M266 705H336L521 413H390L319 535L297 605L272 534L195 413H70L266 705Z" />
<glyph unicode="_" glyph-name="underscore" horiz-adv-x="444" d="M-46 -117H398V-224H-46V-117Z" />
<glyph unicode="`" glyph-name="grave" horiz-adv-x="274" d="M305 566H236L145 690L152 720H281L305 566Z" />
<glyph unicode="a" glyph-name="a" horiz-adv-x="503" d="M444 200Q436 162 433 123T429 49Q429 35 429 23T431 -1H340L326 85H322Q311 67 294 50T255 18T211 -5T162 -14Q96 -14 65 29T33 144Q33 217 51 284T109 402T207 483T349 514Q384 514 425 508T506 490L444
200ZM209 89Q227 89 243 96T272 116T296 142T315 168L365 401Q354 406 340 408T311 411Q275 411 247 390T200 334T170 256T160 168Q160 136 170 113T209 89Z" />
<glyph unicode="b" glyph-name="b" horiz-adv-x="512" d="M164 700H287L225 412H229Q242 430 259 447T296 479T341 503T394 512Q448 512 475 474T502 373Q502 278 476 206T406 86T309 13T200 -12Q139 -12 93 -1T22 28L164 700ZM160 105Q171 97 187 94T222 91Q247
91 274 107T323 156T360 234T375 340Q375 409 335 409Q315 409 296 398T258 371T226 335T202 299L160 105Z" />
<glyph unicode="c" glyph-name="c" horiz-adv-x="412" d="M393 387Q374 398 354 402T309 406Q282 406 257 389T211 343T178 276T166 198Q166 147 188 121T246 94Q276 94 301 103T347 125L370 41Q338 17 296 2T211 -14Q163 -14 130 0T75 38T44 93T34 158Q34 242
58 308T121 419T211 489T315 514Q362 514 389 505T439 485L393 387Z" />
<glyph unicode="d" glyph-name="d" horiz-adv-x="507" d="M442 176Q433 134 429 98T425 30Q425 22 425 15T426 -1H342L328 85H324Q313 67 296 50T257 18T213 -5T166 -14Q104 -14 71 30T37 151Q37 221 56 286T109 401T193 482T303 512Q332 512 351 509T387 497L430
700H553L442 176ZM365 394Q353 402 338 405T296 409Q266 409 242 389T200 334T174 254T164 160Q164 131 177 110T214 89Q229 89 244 96T273 116T298 142T317 168L365 394Z" />
<glyph unicode="e" glyph-name="e" horiz-adv-x="466" d="M402 48Q371 22 322 4T208 -14Q127 -14 81 33T34 166Q34 246 59 310T124 420T216 489T318 514Q359 514 388 504T437 475T465 432T474 381Q474 340 453 309T395 258T304 227T188 216Q180 216 173 216T158
217Q156 205 155 196T154 178Q154 133 177 111T244 89Q288 89 323 102T376 128L402 48ZM176 295Q204 295 235 297T294 306T339 328T357 368Q357 383 346 398T300 414Q256 414 224 380T176 295Z" />
<glyph unicode="f" glyph-name="f" horiz-adv-x="294" d="M246 397L172 -34Q166 -71 155 -102T125 -157T75 -194T1 -208Q-35 -208 -69 -203T-129 -180L-95 -89Q-78 -96 -61 -98T-18 -100Q14 -100 31 -75T58 8L121 397H51L73 500H137L150 567Q157 604 168 631T197
677T242 705T308 714Q324 714 344 713T385 708T424 699T458 687L429 596Q406 605 382 608T335 611Q303 611 289 592T268 533L262 500H362L342 397H246Z" />
<glyph unicode="g" glyph-name="g" horiz-adv-x="505" d="M407 0Q394 -59 372 -99T320 -165T250 -201T162 -212Q127 -212 100 -207T51 -195T15 -181T-10 -167L36 -76Q45 -80 57 -85T84 -96T120 -105T168 -109Q218 -109 247 -78T290 7L309 85H305Q282 49 243 21T153
-8Q99 -8 66 32T32 141Q32 218 54 285T115 403T209 483T328 512Q389 512 434 502T508 478L407 0ZM371 399Q360 405 343 407T309 409Q277 409 250 390T202 338T171 261T159 165Q159 133 172 114T208 95Q225 95 243 105T277 132T307 167T328 204L371 399Z" />
<glyph unicode="h" glyph-name="h" horiz-adv-x="528" d="M309 0L369 284Q379 328 379 357Q379 383 369 394T338 406Q319 406 298 394T258 364T224 326T200 288L141 0H18L166 700H289L226 412H230Q243 428 261 446T302 479T351 504T409 514Q457 514 483 490T510
405Q510 368 498 311L432 0H309Z" />
<glyph unicode="i" glyph-name="i" horiz-adv-x="256" d="M133 500H256L150 0H27L133 500ZM408 642Q408 675 429 693T484 711Q516 711 538 693T561 642Q561 610 539 592T484 573Q451 573 430 591T408 642Z" />
<glyph unicode="j" glyph-name="j" horiz-adv-x="244" d="M123 500H247L136 -21Q117 -111 72 -158T-50 -206Q-81 -206 -112 -199L-88 -93Q-63 -95 -45 -89T-15 -68T6 -33T21 16L123 500ZM397 642Q397 675 418 693T473 711Q505 711 527 693T550 642Q550 610 528
592T473 573Q440 573 419 591T397 642Z" />
<glyph unicode="k" glyph-name="k" horiz-adv-x="465" d="M224 207H184L141 0H18L166 700H289L201 287L238 300L379 500H516L367 299L307 261L352 223L428 0H296L224 207Z" />
<glyph unicode="l" glyph-name="l" horiz-adv-x="272" d="M168 148Q162 119 168 105T190 91Q218 91 243 102L240 13Q222 2 188 -5T121 -12Q78 -12 56 4T33 66Q33 89 39 119L162 700H285L168 148Z" />
<glyph unicode="m" glyph-name="m" horiz-adv-x="767" d="M283 0L340 272Q346 300 349 321T353 360Q353 406 318 406Q301 406 284 397T253 374T226 344T205 312L141 0H18L124 500H220L214 412H218Q233 428 250 446T290 479T339 504T398 514Q438 514 458 485T477
408Q492 427 511 446T553 480T601 504T654 514Q700 514 724 493T749 412Q749 369 734 300L671 0H548L607 281Q612 304 615 324T618 359Q618 382 610 394T581 406Q565 406 549 397T517 373T490 341T470 309L406 0H283Z" />
<glyph unicode="n" glyph-name="n" horiz-adv-x="521" d="M299 0L365 310Q371 338 371 359Q371 381 362 393T329 406Q311 406 293 397T259 373T229 340T205 302L141 0H18L124 500H217L212 412H216Q229 428 246 446T287 479T338 504T403 514Q448 514 475 490T502
408Q502 393 501 376T494 339L422 0H299Z" />
<glyph unicode="o" glyph-name="o" horiz-adv-x="496" d="M34 162Q34 241 56 306T116 417T203 488T307 514Q355 514 388 499T441 459T471 402T480 336Q480 258 458 194T399 83T313 12T210 -14Q163 -14 130 1T76 42T44 98T34 162ZM161 179Q161 89 226 89Q250 89
273 110T314 165T342 242T353 328Q353 368 340 389T289 411Q265 411 242 391T201 339T172 264T161 179Z" />
<glyph unicode="p" glyph-name="p" horiz-adv-x="506" d="M122 500H213L208 412H212Q226 431 244 449T284 482T331 505T385 514Q436 514 467 479T498 369Q498 284 476 214T416 93T328 14T222 -14Q196 -14 173 -9T139 4L96 -200H-26L122 500ZM160 106Q185 89 216
89Q247 89 275 110T324 166T358 247T371 345Q371 374 358 392T321 411Q303 411 286 402T254 380T227 349T206 316L160 106Z" />
<glyph unicode="q" glyph-name="q" horiz-adv-x="501" d="M356 -200H236L297 78H293Q283 61 269 45T236 16T195 -6T148 -14Q115 -14 93 -2T56 32T36 81T29 139Q29 215 53 283T120 402T219 482T339 512Q387 512 432 502T503 477L356 -200ZM364 399Q350 405 335
407T305 409Q275 409 248 388T200 331T168 249T156 155Q156 124 167 107T199 89Q218 89 237 100T272 129T302 167T324 206L364 399Z" />
<glyph unicode="r" glyph-name="r" horiz-adv-x="343" d="M215 500L216 412H220Q242 452 273 480T353 508Q374 508 403 500L372 393Q362 396 353 398T334 400Q293 400 259 374T206 312L141 0H18L124 500H215Z" />
<glyph unicode="s" glyph-name="s" horiz-adv-x="396" d="M38 117Q58 106 89 98T156 89Q191 89 209 102T229 144Q229 164 217 178T187 206T147 232T108 263T77 305T65 363Q65 396 78 424T114 472T171 503T247 514Q305 514 343 506T403 484L369 390Q349 399 321
405T261 411Q229 411 211 400T192 365Q192 349 204 337T234 311T274 285T313 252T344 209T356 150Q356 67 302 27T158 -14Q107 -14 65 -5T-1 19L38 117Z" />
<glyph unicode="t" glyph-name="t" horiz-adv-x="320" d="M64 500H129L149 594L280 631L252 500H369L346 397H230L181 171Q175 144 175 127Q175 105 185 97T215 89Q234 89 249 93T282 106V14Q271 8 256 3T222 -6T185 -12T150 -14Q99 -14 72 9T44 81Q44 91 45 102T49
125L107 397H40L64 500Z" />
<glyph unicode="u" glyph-name="u" horiz-adv-x="512" d="M241 500L176 191Q170 161 170 141Q170 121 178 110T206 99Q223 99 240 107T274 129T303 159T326 192L390 500H513L450 200Q445 180 442 153T435 98T431 43T431 0H332L327 90H323Q309 71 291 53T250 19T201
-5T144 -14Q97 -14 68 9T39 96Q39 133 49 177L118 500H241Z" />
<glyph unicode="v" glyph-name="v" horiz-adv-x="448" d="M209 238L211 161H214L244 240L381 500H520L214 -5H138L40 500H176L209 238Z" />
<glyph unicode="w" glyph-name="w" horiz-adv-x="678" d="M445 500L477 244L476 161H481L511 245L627 500H747L492 -5H401L366 275V338H362L336 274L186 -5H92L46 500H172L188 249L182 160H187L221 250L353 500H445Z" />
<glyph unicode="x" glyph-name="x" horiz-adv-x="496" d="M166 256L76 500H215L253 393L266 323L310 393L397 500H540L345 260L445 0H309L261 120L246 194L201 120L102 0H-41L166 256Z" />
<glyph unicode="y" glyph-name="y" horiz-adv-x="452" d="M216 219L217 141H223L250 220L386 500H517L277 51Q247 -5 221 -52T167 -133T111 -186T49 -205Q5 -205 -17 -190L16 -92Q22 -95 28 -96T41 -97Q65 -97 90 -74T140 0L46 500H187L216 219Z" />
<glyph unicode="z" glyph-name="z" horiz-adv-x="435" d="M9 108L234 347L305 392H69L93 500H465L442 392L212 149L148 108H382L359 0H-13L9 108Z" />
<glyph unicode="{" glyph-name="braceleft" horiz-adv-x="356" d="M122 96Q133 147 118 166T65 185L87 285Q123 285 147 305T180 370L224 579Q235 633 266 667T351 701H465L442 591H394Q368 591 354 577T332 531L291 336Q282 292 257 270T205 242L203 232Q228
228 242 202T248 134L207 -60Q200 -92 209 -106T245 -120H292L268 -230H154Q104 -230 85 -199T79 -109L122 96Z" />
<glyph unicode="|" glyph-name="bar" horiz-adv-x="232" d="M94 700H200V-130H94V700Z" />
<glyph unicode="}" glyph-name="braceright" horiz-adv-x="356" d="M266 375Q255 324 271 305T324 286L303 186Q227 186 209 101L164 -108Q153 -162 121 -196T34 -230H-76L-52 -120H-4Q21 -120 35 -107T56 -60L98 135Q107 179 131 201T184 229L187 239Q161 243
146 269T140 337L181 531Q188 562 180 576T144 591H98L120 701H233Q283 701 302 670T310 580L266 375Z" />
<glyph unicode="~" glyph-name="asciitilde" horiz-adv-x="505" d="M45 378Q92 416 129 430T199 445Q228 445 253 437T301 419T346 401T392 392Q410 392 429 398T469 421L516 318Q480 291 450 280T394 269Q366 269 342 278T296 298T250 318T201 327Q177 327 150
317T89 278L45 378Z" />
<glyph unicode="&#xa0;" glyph-name="uni00A0" horiz-adv-x="253" />
<glyph unicode="&#xa1;" glyph-name="exclamdown" horiz-adv-x="279" d="M117 -200H-10L59 129L118 291H196L187 129L117 -200ZM100 435Q100 470 122 490T180 511Q217 511 239 491T261 435Q261 400 239 379T180 358Q144 358 122 379T100 435Z" />
<glyph unicode="&#xa2;" glyph-name="cent" horiz-adv-x="545" d="M447 41Q426 24 396 12T333 -7L314 -100H199L218 -9Q185 -2 161 14T122 52T100 102T93 158Q93 233 112 293T163 399T239 472T329 509L348 600H463L443 508Q489 499 515 485L470 387Q459 393 445
397T414 403L349 98Q371 103 390 110T423 125L447 41ZM327 398Q305 389 285 371T249 327T224 269T214 198Q214 156 228 133T264 101L327 398Z" />
<glyph unicode="&#xa3;" glyph-name="sterling" horiz-adv-x="545" d="M113 399H183Q178 419 174 442T170 498Q170 554 191 595T249 662T331 701T426 714Q471 714 511 705T575 679L533 582Q516 591 487 598T417 606Q393 606 371 598T332 573T305 535T295 485Q295
456 299 437T309 399H449L426 296H331Q331 292 331 290T332 283Q332 233 311 192T265 129L218 99L217 93L284 108H502L478 0H30L54 109H56Q86 110 113 123T162 158T195 211T208 276Q208 281 208 286T207 296H90L113 399Z" />
<glyph unicode="&#xa4;" glyph-name="currency" horiz-adv-x="545" d="M117 622L195 545L214 508Q234 523 261 530T319 538Q348 538 376 531T424 509L444 545L522 622L599 542L522 464L484 448Q499 427 505 401T511 345Q511 315 505 289T484 244L522 228L599 150L522
70L444 147L426 184Q407 170 378 162T319 154Q289 154 262 161T214 183L195 147L117 70L41 150L118 228L154 245Q142 266 135 290T128 345Q128 374 135 399T155 447L118 464L41 542L117 622ZM237 346Q237 308 260 284T320 260Q357 260 379 284T402 346Q402 382
380 407T320 432Q283 432 260 407T237 346Z" />
<glyph unicode="&#xa5;" glyph-name="yen" horiz-adv-x="545" d="M112 337H197L94 700H246L313 437L310 363H315L345 439L518 700H660L403 337H490L473 257H348L336 200H461L444 120H319L294 0H164L189 120H65L82 200H206L218 257H95L112 337Z" />
<glyph unicode="&#xa6;" glyph-name="brokenbar" horiz-adv-x="227" d="M60 213H167V-130H60V213ZM167 357H60V700H167V357Z" />
<glyph unicode="&#xa7;" glyph-name="section" horiz-adv-x="505" d="M85 123Q105 112 135 101T207 89Q242 89 263 102T284 140Q284 156 269 167T230 188T180 209T129 237T91 276T75 335Q75 380 99 411T155 466L203 482Q181 498 170 520T158 568Q158 598 172 625T213
671T275 702T355 714Q411 714 448 703T511 677L474 582Q454 593 421 602T354 611Q319 611 300 597T281 559Q281 542 296 532T335 513T385 495T435 471T473 433T489 373Q489 325 465 291T410 235L359 219Q382 203 393 183T403 130Q402 61 348 24T205 -14Q150 -14
108 -1T42 30L85 123ZM297 270Q320 282 341 302T362 350Q362 367 356 378T338 398T307 414T263 431Q241 419 222 399T202 351Q202 320 224 303T297 270Z" />
<glyph unicode="&#xa8;" glyph-name="dieresis" horiz-adv-x="472" d="M163 651Q163 684 181 702T229 721Q258 721 276 703T295 651Q295 619 277 601T229 583Q200 583 182 601T163 651ZM371 652Q371 684 389 702T437 721Q466 721 484 703T503 652Q503 620 485
602T437 583Q408 583 390 601T371 652Z" />
<glyph unicode="&#xa9;" glyph-name="copyright" horiz-adv-x="836" d="M80 290Q80 373 108 439T184 553T299 625T441 651Q517 651 582 626T697 553T774 440T802 290Q802 207 774 141T697 27T583 -45T441 -71Q358 -71 291 -46T177 27T105 140T80 290ZM177 290Q177
228 197 178T252 94T335 41T441 22Q498 22 546 40T630 93T685 178T705 290Q705 352 686 402T631 486T547 539T441 558Q384 558 336 540T252 487T197 402T177 290ZM566 131Q544 117 511 109T439 100Q358 100 316 151T273 290Q273 381 318 430T439 480Q476 480 504
472T559 448L527 362Q509 371 495 374T466 377Q437 377 420 358T403 290Q403 248 421 226T473 203Q492 203 507 206T537 218L566 131Z" />
<glyph unicode="&#xaa;" glyph-name="ordfeminine" horiz-adv-x="401" d="M121 674Q149 688 193 698T294 708Q354 708 378 683T403 621Q403 596 396 565T381 500T366 436T359 380H269L266 426H263Q249 409 222 393T153 376Q130 376 113 383T84 402T66 429T60 461Q60
495 75 517T115 554T173 574T242 580Q254 580 266 580T290 578Q298 603 289 618T247 634Q209 634 183 627T135 612L121 674ZM277 524Q269 525 261 525T244 526Q214 526 193 517T172 484Q172 471 179 463T201 454Q231 454 245 465T270 489L277 524Z" />
<glyph unicode="&#xab;" glyph-name="guillemotleft" horiz-adv-x="465" d="M216 261L408 477L465 419L361 297L309 260L342 223L398 102L323 48L216 261ZM31 259L231 489L294 425L185 299L125 262L164 223L224 97L147 38L31 259Z" />
<glyph unicode="&#xac;" glyph-name="logicalnot" horiz-adv-x="527" d="M66 412H508V186H388V300H66V412Z" />
<glyph unicode="&#xad;" glyph-name="uni00AD" horiz-adv-x="343" d="M81 340H320L295 236H56L81 340Z" />
<glyph unicode="&#xae;" glyph-name="registered" horiz-adv-x="693" d="M117 451Q117 518 139 570T200 659T290 714T399 733Q458 733 509 714T599 659T660 571T682 451Q682 383 660 331T598 242T508 188T399 169Q340 169 289 187T199 242T139 330T117 451ZM211
451Q211 403 226 367T267 307T327 271T399 259Q439 259 473 270T533 306T573 366T588 451Q588 499 573 535T532 595T472 631T399 643Q357 643 323 630T263 592T225 532T211 451ZM296 581Q312 586 341 588T396 591Q438 591 468 574T498 513Q498 481 478 464T427
445L455 431L520 322H459L396 426L348 441V322H296V581ZM385 546Q374 546 364 546T348 542V471H382Q411 471 427 480T443 511Q443 546 385 546Z" />
<glyph unicode="&#xaf;" glyph-name="overscore" horiz-adv-x="421" d="M157 658H465L446 566H138L157 658Z" />
<glyph unicode="&#xb0;" glyph-name="degree" horiz-adv-x="437" d="M121 548Q121 585 134 615T169 668T222 702T285 714Q319 714 349 703T402 671T438 618T451 548Q451 509 438 479T403 427T350 395T285 384Q252 384 222 395T170 427T134 478T121 548ZM221 548Q221
516 240 498T286 479Q313 479 332 497T351 548Q351 580 332 599T286 619Q259 619 240 600T221 548Z" />
<glyph unicode="&#xb1;" glyph-name="plusminus" horiz-adv-x="505" d="M58 517H220V682H337V517H499V405H337V299H220V405H58V517ZM58 253H499V141H58V253Z" />
<glyph unicode="&#xb2;" glyph-name="twosuperior" horiz-adv-x="402" d="M446 707Q445 647 409 597T307 499L257 474V470L314 481H415L393 380H96L112 451Q141 469 179 495T250 550T307 609T331 667Q331 685 322 695T286 705Q260 705 235 696T191 677L177 767Q214
788 253 797T327 807Q384 807 415 781T446 707Z" />
<glyph unicode="&#xb3;" glyph-name="threesuperior" horiz-adv-x="402" d="M227 468Q276 468 297 486T317 528Q317 549 303 558T240 568H199L207 606L292 687L338 711L282 705H174L195 800H464L450 738L348 645L313 628V623L340 626Q377 624 401 600T425 537Q425
495 410 464T367 413T303 383T223 373Q187 373 156 379T104 397L144 487Q184 468 227 468Z" />
<glyph unicode="&#xb4;" glyph-name="acute" horiz-adv-x="267" d="M210 720H335L329 690L196 566H127L210 720Z" />
<glyph unicode="&#xb5;" glyph-name="mu" horiz-adv-x="542" d="M238 500L179 227Q172 196 172 168Q172 133 188 115T239 96Q284 96 315 120T366 185L434 500H557L485 163Q477 122 471 81T465 0H375L358 74H355Q331 39 295 14T208 -12Q170 -12 152 5T126 48H121L117
-67L89 -200H-34L114 500H238Z" />
<glyph unicode="&#xb6;" glyph-name="paragraph" horiz-adv-x="538" d="M399 700H505V-130H399V700ZM214 294Q181 294 153 310T105 355T73 420T62 498Q62 538 75 574T112 639T170 683T246 700H320V-130H214V294Z" />
<glyph unicode="&#xb7;" glyph-name="middot" horiz-adv-x="253" d="M73 316Q73 351 95 371T153 392Q190 392 212 372T234 316Q234 281 212 260T153 239Q117 239 95 260T73 316Z" />
<glyph unicode="&#xb8;" glyph-name="cedilla" horiz-adv-x="284" d="M112 -43Q146 -45 164 -64T182 -112Q182 -138 171 -157T140 -188T94 -207T37 -213Q-1 -213 -40 -204L-20 -156Q31 -161 50 -150T69 -125Q69 -93 -9 -95L66 0H145L112 -43Z" />
<glyph unicode="&#xb9;" glyph-name="onesuperior" horiz-adv-x="402" d="M140 480H233L268 644L287 690L252 658L189 621L155 694L330 807H412L342 480H425L404 380H119L140 480Z" />
<glyph unicode="&#xba;" glyph-name="ordmasculine" horiz-adv-x="399" d="M60 499Q60 553 78 593T127 659T193 699T266 712Q332 712 366 682T401 592Q401 535 384 494T338 425T272 385T194 372Q132 372 96 406T60 499ZM170 505Q169 483 180 470T212 456Q245 456
268 490T291 579Q291 628 248 628Q231 628 217 618T192 592T175 553T170 505Z" />
<glyph unicode="&#xbb;" glyph-name="guillemotright" horiz-adv-x="465" d="M280 270L89 50L31 107L135 230L187 267L152 305L97 426L173 479L280 270ZM465 268L265 38L202 101L311 227L368 270L331 309L269 433L354 489L465 268Z" />
<glyph unicode="&#xbc;" glyph-name="onequarter" horiz-adv-x="840" d="M618 715L703 665L273 -14L187 39L618 715ZM766 78H694L677 0H581L598 78H402L416 145L681 428H768L713 167H785L766 78ZM635 253L652 306H647L616 257L556 191L515 159L567 167H617L635
253ZM487 544L507 590L471 558L408 522L371 597L550 707H631L540 280H431L487 544Z" />
<glyph unicode="&#xbd;" glyph-name="onehalf" horiz-adv-x="862" d="M619 715L704 665L274 -14L188 39L619 715ZM824 327Q823 267 787 217T685 119L635 94V90L692 101H793L771 0H474L490 71Q519 89 557 115T628 170T685 229T709 287Q709 305 700 315T664 325Q638
325 613 316T569 297L555 387Q592 408 631 417T705 427Q762 427 793 401T824 327ZM487 544L507 590L471 558L408 522L371 597L550 707H631L540 280H431L487 544Z" />
<glyph unicode="&#xbe;" glyph-name="threequarters" horiz-adv-x="864" d="M643 715L728 665L298 -14L212 39L643 715ZM791 78H719L702 0H606L623 78H427L441 145L706 428H793L738 167H810L791 78ZM660 253L677 306H672L641 257L581 191L540 159L592 167H642L660
253ZM187 368Q236 368 257 386T277 428Q277 449 263 458T200 468H159L167 506L252 587L298 611L242 605H134L155 700H424L410 638L308 545L273 528V523L300 526Q337 524 361 500T385 437Q385 395 370 364T327 313T263 283T183 273Q147 273 116 279T64 297L104 387Q144
368 187 368Z" />
<glyph unicode="&#xbf;" glyph-name="questiondown" horiz-adv-x="430" d="M332 293Q326 240 308 202T265 135T213 85T163 43T125 2T110 -47Q110 -74 125 -89T181 -104Q212 -104 249 -91T315 -58L345 -152Q304 -178 256 -195T139 -212Q55 -212 16 -177T-23 -81Q-23
-28 -7 8T34 71T89 121T147 167T196 220T226 293H332ZM213 435Q213 470 235 490T293 511Q330 511 352 491T374 435Q374 400 352 379T293 358Q257 358 235 379T213 435Z" />
<glyph unicode="&#xc0;" glyph-name="Agrave" horiz-adv-x="582" d="M387 155H183L100 0H-38L351 705H447L538 0H407L387 155ZM240 265H382L366 421L367 531H362L322 420L240 265ZM491 752H401L270 840L276 870H416L491 752Z" />
<glyph unicode="&#xc1;" glyph-name="Aacute" horiz-adv-x="582" d="M387 155H183L100 0H-38L351 705H447L538 0H407L387 155ZM240 265H382L366 421L367 531H362L322 420L240 265ZM441 870H598L592 840L420 752H316L441 870Z" />
<glyph unicode="&#xc2;" glyph-name="Acircumflex" horiz-adv-x="582" d="M387 155H183L100 0H-38L351 705H447L538 0H407L387 155ZM240 265H382L366 421L367 531H362L322 420L240 265ZM388 870H475L576 777L568 738H480L435 779L422 813L395 780L328 738H234L243
778L388 870Z" />
<glyph unicode="&#xc3;" glyph-name="Atilde" horiz-adv-x="582" d="M387 155H183L100 0H-38L351 705H447L538 0H407L387 155ZM240 265H382L366 421L367 531H362L322 420L240 265ZM240 800Q278 835 309 848T367 861Q388 861 407 856T445 844T481 832T517 826Q532
826 547 831T578 850L588 783Q555 756 528 746T477 736Q456 736 438 741T401 753T366 764T329 770Q311 770 292 763T249 737L240 800Z" />
<glyph unicode="&#xc4;" glyph-name="Adieresis" horiz-adv-x="582" d="M387 155H183L100 0H-38L351 705H447L538 0H407L387 155ZM240 265H382L366 421L367 531H362L322 420L240 265ZM246 798Q246 827 266 841T318 856Q350 856 370 842T390 798Q390 769 370 755T318
741Q286 741 266 755T246 798ZM450 798Q450 827 470 841T522 856Q554 856 574 842T594 798Q594 769 574 755T522 741Q490 741 470 755T450 798Z" />
<glyph unicode="&#xc5;" glyph-name="Aring" horiz-adv-x="582" d="M286 771Q286 789 292 805T312 834T351 854T414 861Q484 861 513 837T542 771Q542 739 522 716T449 686L538 0H407L387 155H183L100 0H-38L344 693Q312 704 299 724T286 771ZM382 265L366 421L367
531H362L322 420L240 265H382ZM370 771Q370 740 414 740Q439 740 449 748T459 771Q459 804 414 804Q370 804 370 771Z" />
<glyph unicode="&#xc6;" glyph-name="AE" horiz-adv-x="826" d="M449 530L405 436L289 281H403L455 530H449ZM379 170H208L80 0H-66L481 700H614H885L859 578H595L560 415H801L775 293H535L499 122H768L742 0H481H343L379 170Z" />
<glyph unicode="&#xc7;" glyph-name="Ccedilla" horiz-adv-x="537" d="M483 29Q418 -13 326 -14L304 -43Q338 -45 356 -63T374 -111Q374 -137 363 -156T332 -187T286 -206T229 -212Q191 -212 152 -203L172 -155Q223 -160 242 -149T261 -124Q261 -107 241 -101T183
-95L252 -7Q203 3 167 28T106 91T70 174T58 272Q58 390 91 473T178 610T301 689T444 714Q501 714 541 706T605 686L554 570Q534 581 506 586T435 592Q384 592 340 571T264 511T214 416T195 289Q195 204 237 156T351 108Q396 108 425 117T481 141L483 29Z" />
<glyph unicode="&#xc8;" glyph-name="Egrave" horiz-adv-x="503" d="M168 700H298H562L536 578H272L237 415H478L451 293H212L175 122H444L419 0H150H20L168 700ZM452 752H362L231 840L237 870H377L452 752Z" />
<glyph unicode="&#xc9;" glyph-name="Eacute" horiz-adv-x="503" d="M168 700H298H562L536 578H272L237 415H478L451 293H212L175 122H444L419 0H150H20L168 700ZM423 870H580L574 840L402 752H298L423 870Z" />
<glyph unicode="&#xca;" glyph-name="Ecircumflex" horiz-adv-x="503" d="M168 700H298H562L536 578H272L237 415H478L451 293H212L175 122H444L419 0H150H20L168 700ZM359 870H446L547 777L539 738H451L406 779L393 813L366 780L299 738H205L214 778L359 870Z" />
<glyph unicode="&#xcb;" glyph-name="Edieresis" horiz-adv-x="503" d="M168 700H298H562L536 578H272L237 415H478L451 293H212L175 122H444L419 0H150H20L168 700ZM210 798Q210 827 230 841T282 856Q314 856 334 842T354 798Q354 769 334 755T282 741Q250 741
230 755T210 798ZM414 798Q414 827 434 841T486 856Q518 856 538 842T558 798Q558 769 538 755T486 741Q454 741 434 755T414 798Z" />
<glyph unicode="&#xcc;" glyph-name="Igrave" horiz-adv-x="278" d="M183 700H312L164 0H35L183 700ZM590 752H500L369 840L375 870H515L590 752Z" />
<glyph unicode="&#xcd;" glyph-name="Iacute" horiz-adv-x="278" d="M183 700H312L164 0H35L183 700ZM303 870H460L454 840L282 752H178L303 870Z" />
<glyph unicode="&#xce;" glyph-name="Icircumflex" horiz-adv-x="278" d="M183 700H312L164 0H35L183 700ZM497 870H584L685 777L677 738H589L544 779L531 813L504 780L437 738H343L352 778L497 870Z" />
<glyph unicode="&#xcf;" glyph-name="Idieresis" horiz-adv-x="278" d="M183 700H312L164 0H35L183 700ZM348 798Q348 827 368 841T420 856Q452 856 472 842T492 798Q492 769 472 755T420 741Q388 741 368 755T348 798ZM552 798Q552 827 572 841T624 856Q656 856
676 842T696 798Q696 769 676 755T624 741Q592 741 572 755T552 798Z" />
<glyph unicode="&#xd0;" glyph-name="Eth" horiz-adv-x="640" d="M40 401H125L188 700Q209 703 234 705T281 708T318 709Q328 709 344 709T379 710Q441 710 491 695T576 647T631 565T651 446Q651 402 644 352T618 250T569 152T490 69T376 11T221 -11Q206 -11 192
-11T170 -10Q152 -9 127 -8T77 -5T40 -1L108 321H23L40 401ZM254 401H386L369 321H237L194 114Q198 113 206 113T225 112T244 111T258 111Q328 111 377 142T456 221T500 324T514 428Q514 508 481 548T368 588Q349 588 327 587T293 584L254 401Z" />
<glyph unicode="&#xd1;" glyph-name="Ntilde" horiz-adv-x="631" d="M267 366L234 478H229L220 366L143 0H20L170 705H260L432 331L463 222H469L476 331L555 700H678L528 -5H438L267 366ZM259 800Q297 835 328 848T386 861Q407 861 426 856T464 844T500 832T536
826Q551 826 566 831T597 850L607 783Q574 756 547 746T496 736Q475 736 457 741T420 753T385 764T348 770Q330 770 311 763T268 737L259 800Z" />
<glyph unicode="&#xd2;" glyph-name="Ograve" horiz-adv-x="644" d="M58 262Q58 355 83 437T156 581T269 678T418 714Q472 714 515 698T589 649T637 564T654 443Q654 349 629 266T557 121T446 22T303 -14Q185 -14 122 55T58 262ZM195 266Q195 194 222 151T313
108Q359 108 396 135T461 209T502 316T517 441Q517 520 486 556T401 592Q356 592 319 566T254 496T211 392T195 266ZM511 752H421L290 840L296 870H436L511 752Z" />
<glyph unicode="&#xd3;" glyph-name="Oacute" horiz-adv-x="644" d="M58 262Q58 355 83 437T156 581T269 678T418 714Q472 714 515 698T589 649T637 564T654 443Q654 349 629 266T557 121T446 22T303 -14Q185 -14 122 55T58 262ZM195 266Q195 194 222 151T313
108Q359 108 396 135T461 209T502 316T517 441Q517 520 486 556T401 592Q356 592 319 566T254 496T211 392T195 266ZM491 870H648L642 840L470 752H366L491 870Z" />
<glyph unicode="&#xd4;" glyph-name="Ocircumflex" horiz-adv-x="644" d="M58 262Q58 355 83 437T156 581T269 678T418 714Q472 714 515 698T589 649T637 564T654 443Q654 349 629 266T557 121T446 22T303 -14Q185 -14 122 55T58 262ZM195 266Q195 194 222 151T313
108Q359 108 396 135T461 209T502 316T517 441Q517 520 486 556T401 592Q356 592 319 566T254 496T211 392T195 266ZM423 870H510L611 777L603 738H515L470 779L457 813L430 780L363 738H269L278 778L423 870Z" />
<glyph unicode="&#xd5;" glyph-name="Otilde" horiz-adv-x="644" d="M58 262Q58 355 83 437T156 581T269 678T418 714Q472 714 515 698T589 649T637 564T654 443Q654 349 629 266T557 121T446 22T303 -14Q185 -14 122 55T58 262ZM195 266Q195 194 222 151T313
108Q359 108 396 135T461 209T502 316T517 441Q517 520 486 556T401 592Q356 592 319 566T254 496T211 392T195 266ZM268 800Q306 835 337 848T395 861Q416 861 435 856T473 844T509 832T545 826Q560 826 575 831T606 850L616 783Q583 756 556 746T505 736Q484
736 466 741T429 753T394 764T357 770Q339 770 320 763T277 737L268 800Z" />
<glyph unicode="&#xd6;" glyph-name="Odieresis" horiz-adv-x="644" d="M58 262Q58 355 83 437T156 581T269 678T418 714Q472 714 515 698T589 649T637 564T654 443Q654 349 629 266T557 121T446 22T303 -14Q185 -14 122 55T58 262ZM195 266Q195 194 222 151T313
108Q359 108 396 135T461 209T502 316T517 441Q517 520 486 556T401 592Q356 592 319 566T254 496T211 392T195 266ZM270 798Q270 827 290 841T342 856Q374 856 394 842T414 798Q414 769 394 755T342 741Q310 741 290 755T270 798ZM474 798Q474 827 494 841T546
856Q578 856 598 842T618 798Q618 769 598 755T546 741Q514 741 494 755T474 798Z" />
<glyph unicode="&#xd7;" glyph-name="multiply" horiz-adv-x="505" d="M146 547L277 417L407 547L486 466L356 339L486 210L407 128L277 259L145 127L66 208L197 339L68 466L146 547Z" />
<glyph unicode="&#xd8;" glyph-name="Oslash" horiz-adv-x="644" d="M58 262Q58 355 83 437T156 581T269 678T418 714Q504 714 560 674L587 706L659 644L622 599Q637 569 645 530T654 443Q654 349 629 266T557 121T446 22T303 -14Q213 -14 154 27L127 -5L57 59L91
101Q75 133 67 173T58 262ZM474 568Q445 592 401 592Q356 592 319 566T254 496T211 392T195 266Q195 256 195 247T197 229L474 568ZM239 132Q267 108 313 108Q359 108 396 135T461 209T502 316T517 441Q517 449 517 455T516 469L239 132Z" />
<glyph unicode="&#xd9;" glyph-name="Ugrave" horiz-adv-x="602" d="M531 700H653L558 248Q543 176 519 127T461 46T381 2T275 -12Q217 -12 177 1T112 40T75 99T63 174Q63 194 65 215T73 259L167 700H296L204 260Q196 222 196 198Q196 150 221 130T294 110Q354
110 387 145T437 258L531 700ZM489 752H399L268 840L274 870H414L489 752Z" />
<glyph unicode="&#xda;" glyph-name="Uacute" horiz-adv-x="602" d="M531 700H653L558 248Q543 176 519 127T461 46T381 2T275 -12Q217 -12 177 1T112 40T75 99T63 174Q63 194 65 215T73 259L167 700H296L204 260Q196 222 196 198Q196 150 221 130T294 110Q354
110 387 145T437 258L531 700ZM487 870H644L638 840L466 752H362L487 870Z" />
<glyph unicode="&#xdb;" glyph-name="Ucircumflex" horiz-adv-x="602" d="M531 700H653L558 248Q543 176 519 127T461 46T381 2T275 -12Q217 -12 177 1T112 40T75 99T63 174Q63 194 65 215T73 259L167 700H296L204 260Q196 222 196 198Q196 150 221 130T294 110Q354
110 387 145T437 258L531 700ZM409 870H496L597 777L589 738H501L456 779L443 813L416 780L349 738H255L264 778L409 870Z" />
<glyph unicode="&#xdc;" glyph-name="Udieresis" horiz-adv-x="602" d="M531 700H653L558 248Q543 176 519 127T461 46T381 2T275 -12Q217 -12 177 1T112 40T75 99T63 174Q63 194 65 215T73 259L167 700H296L204 260Q196 222 196 198Q196 150 221 130T294 110Q354
110 387 145T437 258L531 700ZM256 798Q256 827 276 841T328 856Q360 856 380 842T400 798Q400 769 380 755T328 741Q296 741 276 755T256 798ZM460 798Q460 827 480 841T532 856Q564 856 584 842T604 798Q604 769 584 755T532 741Q500 741 480 755T460 798Z" />
<glyph unicode="&#xdd;" glyph-name="Yacute" horiz-adv-x="569" d="M231 260L106 700H250L315 437L313 363H317L348 439L523 700H672L361 261L306 0H177L231 260ZM451 870H608L602 840L430 752H326L451 870Z" />
<glyph unicode="&#xde;" glyph-name="Thorn" horiz-adv-x="550" d="M169 700H298L283 629Q296 630 309 630T335 630Q386 630 429 619T505 583T556 522T574 432Q574 354 547 302T476 217T374 171T258 157Q253 157 243 157T221 157T199 158T183 160L150 0H20L169
700ZM257 507Q245 449 233 393T209 280Q213 279 220 278T235 277T251 276T263 275Q297 275 328 282T384 305T422 349T437 415Q437 445 428 463T402 493T365 508T319 512Q301 512 285 511T257 507Z" />
<glyph unicode="&#xdf;" glyph-name="germandbls" horiz-adv-x="608" d="M153 528Q165 585 188 620T243 674T315 701T402 708Q453 708 488 697T545 668T577 625T587 572Q587 537 576 512T547 469T510 438T472 413T444 388T432 358Q432 341 443 330T472 310T509
291T547 266T575 227T587 167Q587 128 570 95T522 37T450 0T360 -14Q319 -14 279 -3T214 26L270 123Q291 110 314 100T372 90Q387 90 402 95T429 109T448 131T456 162Q456 181 445 193T416 216T378 236T340 261T311 297T299 350Q299 379 310 400T339 438T377 466T414
491T443 516T455 548Q455 571 437 585T385 600Q337 600 308 574T268 488L179 0Q170 -51 158 -90T126 -155T75 -194T1 -208Q-35 -208 -69 -203T-129 -180L-95 -89Q-78 -96 -61 -98T-18 -100Q14 -100 31 -75T57 0L128 398H46L66 500H147L153 528V528Z" />
<glyph unicode="&#xe0;" glyph-name="agrave" horiz-adv-x="503" d="M444 200Q436 162 433 123T429 49Q429 35 429 23T431 -1H340L326 85H322Q311 67 294 50T255 18T211 -5T162 -14Q96 -14 65 29T33 144Q33 217 51 284T109 402T207 483T349 514Q384 514 425 508T506
490L444 200ZM209 89Q227 89 243 96T272 116T296 142T315 168L365 401Q354 406 340 408T311 411Q275 411 247 390T200 334T170 256T160 168Q160 136 170 113T209 89ZM387 566H318L227 690L234 720H363L387 566Z" />
<glyph unicode="&#xe1;" glyph-name="aacute" horiz-adv-x="503" d="M444 200Q436 162 433 123T429 49Q429 35 429 23T431 -1H340L326 85H322Q311 67 294 50T255 18T211 -5T162 -14Q96 -14 65 29T33 144Q33 217 51 284T109 402T207 483T349 514Q384 514 425 508T506
490L444 200ZM209 89Q227 89 243 96T272 116T296 142T315 168L365 401Q354 406 340 408T311 411Q275 411 247 390T200 334T170 256T160 168Q160 136 170 113T209 89ZM381 720H506L500 690L367 566H298L381 720Z" />
<glyph unicode="&#xe2;" glyph-name="acircumflex" horiz-adv-x="503" d="M444 200Q436 162 433 123T429 49Q429 35 429 23T431 -1H340L326 85H322Q311 67 294 50T255 18T211 -5T162 -14Q96 -14 65 29T33 144Q33 217 51 284T109 402T207 483T349 514Q384 514 425
508T506 490L444 200ZM209 89Q227 89 243 96T272 116T296 142T315 168L365 401Q354 406 340 408T311 411Q275 411 247 390T200 334T170 256T160 168Q160 136 170 113T209 89ZM345 732H427L494 550H398L374 616L370 665L343 616L286 550H189L345 732Z" />
<glyph unicode="&#xe3;" glyph-name="atilde" horiz-adv-x="503" d="M444 200Q436 162 433 123T429 49Q429 35 429 23T431 -1H340L326 85H322Q311 67 294 50T255 18T211 -5T162 -14Q96 -14 65 29T33 144Q33 217 51 284T109 402T207 483T349 514Q384 514 425 508T506
490L444 200ZM209 89Q227 89 243 96T272 116T296 142T315 168L365 401Q354 406 340 408T311 411Q275 411 247 390T200 334T170 256T160 168Q160 136 170 113T209 89ZM196 658Q231 695 257 709T306 723Q324 723 339 716T370 701T401 686T435 679Q449 679 465 685T502
706L506 636Q474 604 449 592T403 579Q385 579 369 585T337 600T305 614T271 621Q256 621 238 615T200 593L196 658Z" />
<glyph unicode="&#xe4;" glyph-name="adieresis" horiz-adv-x="503" d="M444 200Q436 162 433 123T429 49Q429 35 429 23T431 -1H340L326 85H322Q311 67 294 50T255 18T211 -5T162 -14Q96 -14 65 29T33 144Q33 217 51 284T109 402T207 483T349 514Q384 514 425
508T506 490L444 200ZM209 89Q227 89 243 96T272 116T296 142T315 168L365 401Q354 406 340 408T311 411Q275 411 247 390T200 334T170 256T160 168Q160 136 170 113T209 89ZM170 651Q170 684 188 702T236 721Q265 721 283 703T302 651Q302 619 284 601T236 583Q207
583 189 601T170 651ZM378 652Q378 684 396 702T444 721Q473 721 491 703T510 652Q510 620 492 602T444 583Q415 583 397 601T378 652Z" />
<glyph unicode="&#xe5;" glyph-name="aring" horiz-adv-x="503" d="M444 200Q436 162 433 123T429 49Q429 35 429 23T431 -1H340L326 85H322Q311 67 294 50T255 18T211 -5T162 -14Q96 -14 65 29T33 144Q33 217 51 284T109 402T207 483T349 514Q384 514 425 508T506
490L444 200ZM209 89Q227 89 243 96T272 116T296 142T315 168L365 401Q354 406 340 408T311 411Q275 411 247 390T200 334T170 256T160 168Q160 136 170 113T209 89ZM254 647Q254 689 282 716T365 743Q416 743 446 719T476 647Q476 608 447 581T365 553Q312 553
283 578T254 647ZM326 647Q326 631 337 623T365 614Q382 614 393 622T404 647Q404 664 393 672T365 681Q349 681 338 673T326 647Z" />
<glyph unicode="&#xe6;" glyph-name="ae" horiz-adv-x="744" d="M312 223Q304 224 296 224T279 224Q222 224 183 206T144 148Q144 121 158 109T195 97Q213 97 229 104T260 122T285 144T303 165L312 223ZM315 77Q283 41 241 17T142 -8Q109 -8 86 2T47 30T25 71T17
118Q17 167 39 202T99 259T187 291T294 302Q302 302 310 302T327 301Q338 339 338 360Q338 384 323 395T272 407Q239 407 202 399T133 378L115 471Q156 491 209 500T313 510Q359 510 391 496T436 450Q465 481 508 497T597 514Q639 514 668 505T716 478T743 439T752
389Q752 333 726 299T654 246T550 219T427 212Q426 204 426 197T425 182Q425 137 448 113T524 89Q562 89 595 99T649 122L672 36Q638 12 587 -1T484 -14Q418 -14 378 10T320 77H315ZM447 292Q479 292 512 293T572 302T616 325T633 368Q633 385 621 399T576 414Q523
414 493 379T447 292Z" />
<glyph unicode="&#xe7;" glyph-name="ccedilla" horiz-adv-x="412" d="M370 41Q344 22 312 8T246 -11L222 -43Q256 -45 274 -63T292 -111Q292 -137 281 -156T250 -187T204 -206T147 -212Q109 -212 70 -203L90 -155Q141 -160 160 -149T179 -124Q179 -107 159 -101T101
-95L167 -10Q131 -4 106 11T65 49T42 100T34 158Q34 242 58 308T121 419T211 489T315 514Q362 514 389 505T439 485L393 387Q374 398 354 402T309 406Q282 406 257 389T211 343T178 276T166 198Q166 147 188 121T246 94Q276 94 301 103T347 125L370 41Z" />
<glyph unicode="&#xe8;" glyph-name="egrave" horiz-adv-x="466" d="M402 48Q371 22 322 4T208 -14Q127 -14 81 33T34 166Q34 246 59 310T124 420T216 489T318 514Q359 514 388 504T437 475T465 432T474 381Q474 340 453 309T395 258T304 227T188 216Q180 216
173 216T158 217Q156 205 155 196T154 178Q154 133 177 111T244 89Q288 89 323 102T376 128L402 48ZM176 295Q204 295 235 297T294 306T339 328T357 368Q357 383 346 398T300 414Q256 414 224 380T176 295ZM367 566H298L207 690L214 720H343L367 566Z" />
<glyph unicode="&#xe9;" glyph-name="eacute" horiz-adv-x="466" d="M402 48Q371 22 322 4T208 -14Q127 -14 81 33T34 166Q34 246 59 310T124 420T216 489T318 514Q359 514 388 504T437 475T465 432T474 381Q474 340 453 309T395 258T304 227T188 216Q180 216
173 216T158 217Q156 205 155 196T154 178Q154 133 177 111T244 89Q288 89 323 102T376 128L402 48ZM176 295Q204 295 235 297T294 306T339 328T357 368Q357 383 346 398T300 414Q256 414 224 380T176 295ZM365 720H490L484 690L351 566H282L365 720Z" />
<glyph unicode="&#xea;" glyph-name="ecircumflex" horiz-adv-x="466" d="M402 48Q371 22 322 4T208 -14Q127 -14 81 33T34 166Q34 246 59 310T124 420T216 489T318 514Q359 514 388 504T437 475T465 432T474 381Q474 340 453 309T395 258T304 227T188 216Q180
216 173 216T158 217Q156 205 155 196T154 178Q154 133 177 111T244 89Q288 89 323 102T376 128L402 48ZM176 295Q204 295 235 297T294 306T339 328T357 368Q357 383 346 398T300 414Q256 414 224 380T176 295ZM322 732H404L471 550H375L351 616L347 665L320 616L263
550H166L322 732Z" />
<glyph unicode="&#xeb;" glyph-name="edieresis" horiz-adv-x="466" d="M402 48Q371 22 322 4T208 -14Q127 -14 81 33T34 166Q34 246 59 310T124 420T216 489T318 514Q359 514 388 504T437 475T465 432T474 381Q474 340 453 309T395 258T304 227T188 216Q180 216
173 216T158 217Q156 205 155 196T154 178Q154 133 177 111T244 89Q288 89 323 102T376 128L402 48ZM176 295Q204 295 235 297T294 306T339 328T357 368Q357 383 346 398T300 414Q256 414 224 380T176 295ZM163 651Q163 684 181 702T229 721Q258 721 276 703T295
651Q295 619 277 601T229 583Q200 583 182 601T163 651ZM371 652Q371 684 389 702T437 721Q466 721 484 703T503 652Q503 620 485 602T437 583Q408 583 390 601T371 652Z" />
<glyph unicode="&#xec;" glyph-name="igrave" horiz-adv-x="256" d="M133 500H256L150 0H27L133 500ZM521 566H452L361 690L368 720H497L521 566Z" />
<glyph unicode="&#xed;" glyph-name="iacute" horiz-adv-x="256" d="M133 500H256L150 0H27L133 500ZM237 720H362L356 690L223 566H154L237 720Z" />
<glyph unicode="&#xee;" glyph-name="icircumflex" horiz-adv-x="256" d="M133 500H256L150 0H27L133 500ZM460 732H542L609 550H513L489 616L485 665L458 616L401 550H304L460 732Z" />
<glyph unicode="&#xef;" glyph-name="idieresis" horiz-adv-x="256" d="M133 500H256L150 0H27L133 500ZM311 651Q311 684 329 702T377 721Q406 721 424 703T443 651Q443 619 425 601T377 583Q348 583 330 601T311 651ZM519 652Q519 684 537 702T585 721Q614 721
632 703T651 652Q651 620 633 602T585 583Q556 583 538 601T519 652Z" />
<glyph unicode="&#xf0;" glyph-name="eth" horiz-adv-x="508" d="M262 592L332 621Q314 639 293 652T248 673L345 714Q390 697 427 660L500 690L528 636L464 609Q481 578 491 540T501 457Q501 334 478 245T414 99T322 14T211 -14Q131 -14 84 33T37 172Q37 242
57 302T112 406T192 474T289 499Q358 499 390 461Q392 493 386 519T369 569L294 538L262 592ZM164 177Q164 135 180 112T226 89Q265 89 292 117T337 185T362 272T369 353Q361 373 343 385T298 397Q268 397 244 378T202 328T174 258T164 177Z" />
<glyph unicode="&#xf1;" glyph-name="ntilde" horiz-adv-x="521" d="M551 0L617 310Q623 338 623 359Q623 381 614 393T581 406Q563 406 545 397T511 373T481 340T457 302L393 0H270L376 500H469L464 412H468Q481 428 498 446T539 479T590 504T655 514Q700 514
727 490T754 408Q754 393 753 376T746 339L674 0H551ZM202 658Q237 695 263 709T312 723Q330 723 345 716T376 701T407 686T441 679Q455 679 471 685T508 706L512 636Q480 604 455 592T409 579Q391 579 375 585T343 600T311 614T277 621Q262 621 244 615T206 593L202
658Z" />
<glyph unicode="&#xf2;" glyph-name="ograve" horiz-adv-x="496" d="M34 162Q34 241 56 306T116 417T203 488T307 514Q355 514 388 499T441 459T471 402T480 336Q480 258 458 194T399 83T313 12T210 -14Q163 -14 130 1T76 42T44 98T34 162ZM161 179Q161 89 226
89Q250 89 273 110T314 165T342 242T353 328Q353 368 340 389T289 411Q265 411 242 391T201 339T172 264T161 179ZM375 566H306L215 690L222 720H351L375 566Z" />
<glyph unicode="&#xf3;" glyph-name="oacute" horiz-adv-x="496" d="M34 162Q34 241 56 306T116 417T203 488T307 514Q355 514 388 499T441 459T471 402T480 336Q480 258 458 194T399 83T313 12T210 -14Q163 -14 130 1T76 42T44 98T34 162ZM161 179Q161 89 226
89Q250 89 273 110T314 165T342 242T353 328Q353 368 340 389T289 411Q265 411 242 391T201 339T172 264T161 179ZM363 720H488L482 690L349 566H280L363 720Z" />
<glyph unicode="&#xf4;" glyph-name="ocircumflex" horiz-adv-x="496" d="M34 162Q34 241 56 306T116 417T203 488T307 514Q355 514 388 499T441 459T471 402T480 336Q480 258 458 194T399 83T313 12T210 -14Q163 -14 130 1T76 42T44 98T34 162ZM161 179Q161 89
226 89Q250 89 273 110T314 165T342 242T353 328Q353 368 340 389T289 411Q265 411 242 391T201 339T172 264T161 179ZM319 732H401L468 550H372L348 616L344 665L317 616L260 550H163L319 732Z" />
<glyph unicode="&#xf5;" glyph-name="otilde" horiz-adv-x="496" d="M34 162Q34 241 56 306T116 417T203 488T307 514Q355 514 388 499T441 459T471 402T480 336Q480 258 458 194T399 83T313 12T210 -14Q163 -14 130 1T76 42T44 98T34 162ZM161 179Q161 89 226
89Q250 89 273 110T314 165T342 242T353 328Q353 368 340 389T289 411Q265 411 242 391T201 339T172 264T161 179ZM178 658Q213 695 239 709T288 723Q306 723 321 716T352 701T383 686T417 679Q431 679 447 685T484 706L488 636Q456 604 431 592T385 579Q367 579
351 585T319 600T287 614T253 621Q238 621 220 615T182 593L178 658Z" />
<glyph unicode="&#xf6;" glyph-name="odieresis" horiz-adv-x="496" d="M34 162Q34 241 56 306T116 417T203 488T307 514Q355 514 388 499T441 459T471 402T480 336Q480 258 458 194T399 83T313 12T210 -14Q163 -14 130 1T76 42T44 98T34 162ZM161 179Q161 89
226 89Q250 89 273 110T314 165T342 242T353 328Q353 368 340 389T289 411Q265 411 242 391T201 339T172 264T161 179ZM163 651Q163 684 181 702T229 721Q258 721 276 703T295 651Q295 619 277 601T229 583Q200 583 182 601T163 651ZM371 652Q371 684 389 702T437
721Q466 721 484 703T503 652Q503 620 485 602T437 583Q408 583 390 601T371 652Z" />
<glyph unicode="&#xf7;" glyph-name="divide" horiz-adv-x="505" d="M58 394H500V282H58V394ZM199 534Q199 569 221 589T279 610Q316 610 338 590T360 534Q360 499 338 478T279 457Q243 457 221 478T199 534ZM199 139Q199 174 221 194T279 215Q316 215 338 195T360
139Q360 104 338 83T279 62Q243 62 221 83T199 139Z" />
<glyph unicode="&#xf8;" glyph-name="oslash" horiz-adv-x="496" d="M34 162Q34 241 56 306T116 417T203 488T307 514Q339 514 364 507T408 488L442 526L506 467L464 420Q480 382 480 336Q480 258 458 194T399 83T313 12T210 -14Q176 -14 150 -6T103 17L66 -24L0
36L47 90Q34 123 34 162ZM176 114Q192 89 226 89Q249 89 271 108T310 159T339 231T353 312L176 114ZM337 392Q321 411 289 411Q266 411 244 393T205 344T175 275T161 194L337 392Z" />
<glyph unicode="&#xf9;" glyph-name="ugrave" horiz-adv-x="512" d="M241 500L176 191Q170 161 170 141Q170 121 178 110T206 99Q223 99 240 107T274 129T303 159T326 192L390 500H513L450 200Q445 180 442 153T435 98T431 43T431 0H332L327 90H323Q309 71 291
53T250 19T201 -5T144 -14Q97 -14 68 9T39 96Q39 133 49 177L118 500H241ZM372 566H303L212 690L219 720H348L372 566Z" />
<glyph unicode="&#xfa;" glyph-name="uacute" horiz-adv-x="512" d="M241 500L176 191Q170 161 170 141Q170 121 178 110T206 99Q223 99 240 107T274 129T303 159T326 192L390 500H513L450 200Q445 180 442 153T435 98T431 43T431 0H332L327 90H323Q309 71 291
53T250 19T201 -5T144 -14Q97 -14 68 9T39 96Q39 133 49 177L118 500H241ZM351 720H476L470 690L337 566H268L351 720Z" />
<glyph unicode="&#xfb;" glyph-name="ucircumflex" horiz-adv-x="512" d="M241 500L176 191Q170 161 170 141Q170 121 178 110T206 99Q223 99 240 107T274 129T303 159T326 192L390 500H513L450 200Q445 180 442 153T435 98T431 43T431 0H332L327 90H323Q309 71
291 53T250 19T201 -5T144 -14Q97 -14 68 9T39 96Q39 133 49 177L118 500H241ZM325 732H407L474 550H378L354 616L350 665L323 616L266 550H169L325 732Z" />
<glyph unicode="&#xfc;" glyph-name="udieresis" horiz-adv-x="512" d="M241 500L176 191Q170 161 170 141Q170 121 178 110T206 99Q223 99 240 107T274 129T303 159T326 192L390 500H513L450 200Q445 180 442 153T435 98T431 43T431 0H332L327 90H323Q309 71
291 53T250 19T201 -5T144 -14Q97 -14 68 9T39 96Q39 133 49 177L118 500H241ZM172 651Q172 684 190 702T238 721Q267 721 285 703T304 651Q304 619 286 601T238 583Q209 583 191 601T172 651ZM380 652Q380 684 398 702T446 721Q475 721 493 703T512 652Q512 620
494 602T446 583Q417 583 399 601T380 652Z" />
<glyph unicode="&#xfd;" glyph-name="yacute" horiz-adv-x="452" d="M216 219L217 141H223L250 220L386 500H517L277 51Q247 -5 221 -52T167 -133T111 -186T49 -205Q5 -205 -17 -190L16 -92Q22 -95 28 -96T41 -97Q65 -97 90 -74T140 0L46 500H187L216 219ZM330
720H455L449 690L316 566H247L330 720Z" />
<glyph unicode="&#xfe;" glyph-name="thorn" horiz-adv-x="506" d="M165 700H288L226 432H230Q242 448 257 463T291 489T333 507T385 514Q436 514 467 479T498 369Q498 284 476 214T416 93T328 14T222 -14Q196 -14 173 -9T139 4L96 -200H-26L165 700ZM160 106Q185
89 216 89Q247 89 274 110T322 166T355 247T367 345Q367 374 356 392T321 411Q303 411 286 402T254 380T227 349T206 316L160 106Z" />
<glyph unicode="&#xff;" glyph-name="ydieresis" horiz-adv-x="452" d="M216 219L217 141H223L250 220L386 500H517L277 51Q247 -5 221 -52T167 -133T111 -186T49 -205Q5 -205 -17 -190L16 -92Q22 -95 28 -96T41 -97Q65 -97 90 -74T140 0L46 500H187L216 219ZM387
651Q387 684 405 702T453 721Q482 721 500 703T519 651Q519 619 501 601T453 583Q424 583 406 601T387 651ZM595 652Q595 684 613 702T661 721Q690 721 708 703T727 652Q727 620 709 602T661 583Q632 583 614 601T595 652Z" />
<glyph unicode="&#x2013;" glyph-name="endash" horiz-adv-x="627" d="M130 340H549L524 236H105L130 340Z" />
<glyph unicode="&#x2014;" glyph-name="emdash" horiz-adv-x="779" d="M130 340H701L676 236H105L130 340Z" />
<glyph unicode="&#x2018;" glyph-name="quoteleft" horiz-adv-x="215" d="M238 631Q238 592 215 573T165 554Q148 554 136 560T115 577T103 600T99 626Q99 666 116 697T156 749T203 783T241 799L260 745Q240 737 223 720T199 682Q216 682 227 667T238 631Z" />
<glyph unicode="&#x2019;" glyph-name="quoteright" horiz-adv-x="215" d="M121 637Q121 655 128 668T147 691T171 704T196 709Q231 709 246 691T261 642Q261 601 246 570T208 517T161 482T118 463L99 518Q120 527 137 542T162 580Q144 582 132 596T121 637Z" />
<glyph unicode="&#x201a;" glyph-name="quotesinglbase" horiz-adv-x="226" d="M30 55Q30 73 37 86T56 109T80 122T105 127Q140 127 155 109T170 60Q170 19 155 -12T117 -65T70 -100T27 -119L8 -64Q29 -55 46 -40T71 -2Q53 0 41 14T30 55Z" />
<glyph unicode="&#x201c;" glyph-name="quotedblleft" horiz-adv-x="379" d="M402 631Q402 592 379 573T329 554Q312 554 300 560T279 577T267 600T263 626Q263 666 280 697T320 749T367 783T405 799L424 745Q404 737 387 720T363 682Q380 682 391 667T402 631ZM238
631Q238 592 215 573T165 554Q148 554 136 560T115 577T103 600T99 626Q99 666 116 697T156 749T203 783T241 799L260 745Q240 737 223 720T199 682Q216 682 227 667T238 631Z" />
<glyph unicode="&#x201d;" glyph-name="quotedblright" horiz-adv-x="379" d="M284 637Q284 655 291 668T310 691T334 704T359 709Q394 709 409 691T424 642Q424 601 409 570T371 517T324 482T281 463L262 518Q283 527 300 542T325 580Q307 582 295 596T284 637ZM121
637Q121 655 128 668T147 691T171 704T196 709Q231 709 246 691T261 642Q261 601 246 570T208 517T161 482T118 463L99 518Q120 527 137 542T162 580Q144 582 132 596T121 637Z" />
<glyph unicode="&#x201e;" glyph-name="quotedblbase" horiz-adv-x="389" d="M192 55Q192 73 199 86T218 109T242 122T267 127Q302 127 317 109T332 60Q332 19 317 -12T279 -65T232 -100T189 -119L170 -64Q191 -55 208 -40T233 -2Q215 0 203 14T192 55ZM30 55Q30
73 37 86T56 109T80 122T105 127Q140 127 155 109T170 60Q170 19 155 -12T117 -65T70 -100T27 -119L8 -64Q29 -55 46 -40T71 -2Q53 0 41 14T30 55Z" />
<glyph unicode="&#x2022;" glyph-name="bullet" horiz-adv-x="452" d="M98 311Q98 345 110 373T142 421T190 452T250 464Q282 464 310 454T358 424T391 376T403 311Q403 275 391 247T359 200T310 170T250 159Q218 159 191 169T143 199T110 247T98 311Z" />
<glyph unicode="&#x2039;" glyph-name="guilsinglleft" horiz-adv-x="293" d="M32 259L232 489L292 425L186 299L131 260L167 223L227 100L143 38L32 259Z" />
<glyph unicode="&#x203a;" glyph-name="guilsinglright" horiz-adv-x="293" d="M293 268L93 38L31 99L139 226L194 267L159 306L97 430L183 489L293 268Z" />
</font>
</defs>
</svg>
